<?xml version="1.0" standalone="no"?>
<!DOCTYPE svg PUBLIC "-//W3C//DTD SVG 1.1//EN" "http://www.w3.org/Graphics/SVG/1.1/DTD/svg11.dtd" >
<svg xmlns="http://www.w3.org/2000/svg">
<metadata></metadata>
<defs>
<font id="libel_suitregular" horiz-adv-x="741" >
<font-face units-per-em="2048" ascent="1618" descent="-430" />
<missing-glyph horiz-adv-x="380" />
<glyph unicode="&#x28;C&#x29;" horiz-adv-x="1622" d="M53 803q0 134 38.5 260t108.5 228t163 178.5t209 118.5t239 42q154 0 294.5 -65.5t242.5 -176.5t162.5 -264t60.5 -321t-60.5 -322t-162.5 -265t-242.5 -177t-294.5 -66t-294.5 66t-242 177t-161.5 265t-60 322zM180 799q0 -141 50 -269t135 -220t202.5 -146.5 t247.5 -54.5q172 0 318.5 92t231.5 251t85 347t-85 349t-231.5 255t-318.5 94q-130 0 -247.5 -55.5t-202.5 -149.5t-135 -223t-50 -270zM553 793q0 146 66 240.5t176 94.5q137 0 202 -131l-92 -63q-48 70 -110 70t-97.5 -56.5t-35.5 -154.5q0 -91 38 -148t97 -57t108 59 l86 -65q-63 -119 -196 -119q-104 0 -173 95t-69 235z" />
<glyph unicode="&#x28;R&#x29;" horiz-adv-x="1480" d="M55 987q0 129 50.5 247t139 205.5t216.5 139t274 51.5q195 0 353 -84t247.5 -231.5t89.5 -327.5q0 -124 -54.5 -241t-146.5 -204.5t-220.5 -140.5t-268.5 -53q-146 0 -274 52.5t-216 140.5t-139 204.5t-51 241.5zM160 987q0 -103 39.5 -200t110.5 -174t180.5 -124 t238.5 -47q167 0 307 71.5t221.5 197t81.5 276.5q0 100 -47 198t-126.5 175t-194.5 124.5t-242 47.5q-129 0 -238.5 -47.5t-180.5 -125t-110.5 -174.5t-39.5 -198zM520 629v696h250q98 0 156.5 -58.5t58.5 -164.5q0 -69 -26.5 -112.5t-88.5 -84.5l125 -276h-147l-119 254 h-70v-254h-139zM659 1026h113q74 0 74 76q0 82 -74 82h-113v-158z" />
<glyph horiz-adv-x="2048" />
<glyph horiz-adv-x="2048" />
<glyph unicode="&#xd;" horiz-adv-x="2048" />
<glyph horiz-adv-x="380" />
<glyph unicode=" "  horiz-adv-x="380" />
<glyph unicode="&#x09;" horiz-adv-x="380" />
<glyph unicode="&#xa0;" horiz-adv-x="380" />
<glyph unicode="!" horiz-adv-x="346" d="M63 1604h216l-78 -1117h-60zM80 106q0 49 24 85t66 36q44 0 68 -34.5t24 -86.5q0 -50 -24 -84t-68 -34q-42 0 -66 35.5t-24 82.5z" />
<glyph unicode="&#x22;" horiz-adv-x="507" d="M57 1630h160l-53 -520h-55zM287 1630h164l-54 -520h-53z" />
<glyph unicode="#" horiz-adv-x="829" d="M39 506l31 145h131l63 303h-131l31 146h131l104 504h109l-105 -504h134l104 504h109l-105 -504h150l-29 -146h-150l-65 -303h149l-28 -145h-150l-104 -506h-113l105 506h-129l-105 -506h-110l104 506h-131zM309 651h133l62 303h-129z" />
<glyph unicode="$" horiz-adv-x="772" d="M45 477v98l188 -45v-53q0 -114 99 -145v381q-121 65 -181.5 122.5t-83 123t-22.5 171.5q0 139 81.5 237.5t205.5 117.5v119h71v-117q125 -21 209 -120t84 -237v-98l-188 45v53q0 118 -105 148v-385q98 -56 153 -97.5t87.5 -90t42.5 -98.5t10 -130q0 -136 -85.5 -239 t-207.5 -117v-121h-71v123q-122 15 -204.5 117t-82.5 237zM233 1130q0 -116 99 -190v336q-99 -31 -99 -146zM403 332q105 24 105 145q0 123 -105 191v-336z" />
<glyph unicode="%" horiz-adv-x="1067" d="M63 907v557q0 72 53.5 125t125.5 53q74 0 127 -53t53 -125v-557q0 -75 -52.5 -128.5t-127.5 -53.5q-72 0 -125.5 53.5t-53.5 128.5zM72 0l784 1604h129l-780 -1604h-133zM182 907q0 -26 17 -42.5t43 -16.5q25 0 42 16.5t17 42.5v557q0 26 -17 42t-42 16q-26 0 -43 -16 t-17 -42v-557zM643 145v557q0 72 53 125.5t125 53.5q74 0 127 -53t53 -126v-557q0 -75 -52.5 -128.5t-127.5 -53.5q-72 0 -125 53.5t-53 128.5zM762 145q0 -26 16.5 -42.5t42.5 -16.5q25 0 42.5 16.5t17.5 42.5v557q0 26 -17.5 42t-42.5 16q-26 0 -42.5 -16t-16.5 -42v-557z " />
<glyph unicode="&#x26;" horiz-adv-x="806" d="M63 283v346q0 119 125 192q-125 61 -125 205v295q0 138 79 223.5t202 85.5t203 -87.5t80 -221.5v-53l-181 -60v113q0 60 -29.5 95.5t-72.5 35.5t-71.5 -35.5t-28.5 -95.5v-277q0 -135 184 -135h18v90l158 60v-150h156v-180h-156v-446q0 -59 27 -95t65 -36q37 0 64 30 v-202q-24 -9 -70 -9q-102 0 -162 82q-88 -82 -198 -82t-188.5 88t-78.5 224zM244 283q0 -60 28.5 -95.5t71.5 -35.5t72.5 35.5t29.5 95.5v446h-18q-184 0 -184 -154v-292z" />
<glyph unicode="'" horiz-adv-x="253" d="M45 1630h160l-51 -520h-56z" />
<glyph unicode="(" horiz-adv-x="395" d="M61 135v1335q0 121 80 211.5t199 102.5v-185q-98 -26 -98 -129v-1335q0 -103 98 -129v-184q-119 12 -199 102t-80 211z" />
<glyph unicode=")" horiz-adv-x="395" d="M55 6q99 27 99 129v1335q0 102 -99 129v185q116 -12 197.5 -102.5t81.5 -211.5v-1335q0 -121 -81.5 -211t-197.5 -102v184z" />
<glyph unicode="*" horiz-adv-x="749" d="M39 1020l280 164l-274 159l70 97l229 -197l-27 299h119l-30 -297l231 195l65 -97l-274 -159l283 -164l-68 -96l-237 198l30 -311h-119l27 313l-240 -200z" />
<glyph unicode="+" horiz-adv-x="714" d="M31 668v176h245v289h173v-289h229v-176h-229v-295h-173v295h-245z" />
<glyph unicode="," horiz-adv-x="286" d="M37 -350l18 467q1 55 26 83.5t60 28.5q37 0 67 -31.5t30 -82.5q0 -27 -13 -64l-137 -401h-51z" />
<glyph unicode="-" horiz-adv-x="655" d="M68 725v158h516v-158h-516z" />
<glyph unicode="." horiz-adv-x="290" d="M55 106q0 50 23.5 85.5t66.5 35.5t67 -34.5t24 -86.5q0 -50 -24.5 -84t-66.5 -34q-43 0 -66.5 35.5t-23.5 82.5z" />
<glyph unicode="/" horiz-adv-x="684" d="M25 -88l534 1780h100l-526 -1780h-108z" />
<glyph unicode="0" horiz-adv-x="751" d="M63 283v1034q0 126 92.5 218.5t219.5 92.5q129 0 220 -92t91 -219v-1034q0 -129 -90.5 -220.5t-220.5 -91.5q-128 0 -220 91.5t-92 220.5zM244 283q0 -55 38 -93t93 -38q54 0 92.5 38t38.5 93v1034q0 54 -38.5 92.5t-92.5 38.5q-55 0 -93 -38.5t-38 -92.5v-1034z" />
<glyph unicode="1" horiz-adv-x="407" d="M35 1341v148q125 0 125 115h180v-1604h-180v1341h-125z" />
<glyph unicode="2" horiz-adv-x="737" d="M61 0v315q0 74 18 139.5t66 151.5q26 51 148 245t151 249q60 117 60 219q0 54 -38.5 92.5t-92.5 38.5q-55 0 -93 -38.5t-38 -92.5v-49l-181 -39v88q0 134 83.5 222.5t228.5 88.5q138 0 224.5 -89.5t86.5 -221.5q0 -56 -2.5 -83.5t-21 -85t-58.5 -130.5 q-29 -54 -74 -129.5t-105 -172.5t-93 -153q-88 -145 -88 -250v-135h442v-180h-623z" />
<glyph unicode="3" horiz-adv-x="739" d="M55 283v79l181 -59v-20q0 -56 37 -93.5t94 -37.5q54 0 92.5 38t38.5 93v266q0 98 -46 142t-159 44v144q113 0 151.5 38.5t38.5 143.5v258q0 56 -31.5 93.5t-84.5 37.5q-56 0 -93.5 -38t-37.5 -93v-53h-181v53q0 146 88 228.5t224 82.5q128 0 213.5 -90.5t85.5 -220.5 v-270q0 -94 -46.5 -152.5t-115.5 -81.5q71 -19 122.5 -85.5t51.5 -168.5v-278q0 -137 -90.5 -224.5t-220.5 -87.5t-221 91.5t-91 220.5z" />
<glyph unicode="4" horiz-adv-x="751" d="M27 557l100 721h168l-72 -539h203v865h180v-865h96v-182h-96v-557h-180v557h-399z" />
<glyph unicode="5" d="M57 283v79l181 -59v-20q0 -55 38 -93t93 -38q54 0 92.5 38t38.5 93v657q0 53 -46 94t-100 41q-58 0 -91.5 -32.5t-41.5 -81.5l-162 45l45 598h576v-181h-424l-18 -233q58 61 161 61q133 0 207 -88t74 -223v-657q0 -129 -91.5 -220.5t-219.5 -91.5q-130 0 -221 91.5 t-91 220.5z" />
<glyph unicode="6" horiz-adv-x="747" d="M63 283v1036q0 135 82.5 223t229.5 88q146 0 228.5 -88.5t82.5 -222.5v-53h-180v53q0 54 -38.5 92.5t-92.5 38.5q-55 0 -93 -38.5t-38 -92.5v-262q59 59 162 59q131 0 205.5 -90.5t74.5 -224.5v-518q0 -129 -90.5 -220.5t-220.5 -91.5q-128 0 -220 91.5t-92 220.5z M244 283q0 -55 38 -93t93 -38q54 0 92.5 38t38.5 93v518q0 56 -38.5 95.5t-92.5 39.5q-58 0 -94.5 -43t-36.5 -105v-505z" />
<glyph unicode="7" horiz-adv-x="661" d="M45 1423v181h580v-134l-330 -1470h-197l357 1423h-410z" />
<glyph unicode="8" horiz-adv-x="745" d="M61 283v331q0 80 38 142t89 84q-50 19 -82 78.5t-32 136.5v264q0 144 82.5 227.5t216.5 83.5q132 0 215.5 -84t83.5 -227v-264q0 -78 -31.5 -135.5t-85.5 -79.5q57 -24 93 -84t36 -142v-331q0 -129 -91.5 -220.5t-219.5 -91.5q-131 0 -221.5 91t-90.5 221zM242 283 q0 -55 38 -93t93 -38q54 0 92.5 38t38.5 93v344q0 58 -38.5 93.5t-94.5 35.5t-92.5 -34.5t-36.5 -94.5v-344zM256 1042q0 -61 31.5 -96t87.5 -35q52 0 83 34.5t31 96.5v277q0 54 -34.5 92.5t-81.5 38.5q-54 0 -85.5 -37.5t-31.5 -93.5v-277z" />
<glyph unicode="9" horiz-adv-x="749" d="M61 283v53h181v-53q0 -55 38 -93t93 -38q54 0 92.5 38t38.5 93v305q-68 -49 -166 -49q-111 0 -194 84t-83 227v469q0 130 90.5 220.5t221.5 90.5q128 0 219.5 -91t91.5 -220v-1036q0 -143 -87 -227.5t-224 -84.5q-138 0 -225 84.5t-87 227.5zM242 850q0 -56 38 -93.5 t93 -37.5q60 0 95.5 39.5t35.5 101.5v459q0 54 -38.5 92.5t-92.5 38.5q-55 0 -93 -38.5t-38 -92.5v-469z" />
<glyph unicode=":" horiz-adv-x="303" d="M61 106q0 50 24 85.5t67 35.5t66.5 -34.5t23.5 -86.5q0 -50 -24 -84t-66 -34q-43 0 -67 35.5t-24 82.5zM61 711q0 49 24 84.5t67 35.5t66.5 -34t23.5 -86q0 -50 -24 -84.5t-66 -34.5q-43 0 -67 36t-24 83z" />
<glyph unicode=";" horiz-adv-x="288" d="M37 -350l18 467q1 55 26 83.5t60 28.5q37 0 67 -31.5t30 -82.5q0 -27 -13 -64l-137 -401h-51zM61 711q0 49 24 84.5t67 35.5t66.5 -34t23.5 -86q-2 -51 -25 -85t-65 -34q-43 0 -67 36t-24 83z" />
<glyph unicode="&#x3c;" horiz-adv-x="512" d="M23 653v125l436 391v-211l-314 -241l314 -252v-207z" />
<glyph unicode="=" horiz-adv-x="512" d="M70 459v151h403v-151h-403zM70 836v155h403v-155h-403z" />
<glyph unicode="&#x3e;" horiz-adv-x="526" d="M70 258v207l311 252l-311 241v211l434 -391v-125z" />
<glyph unicode="?" horiz-adv-x="696" d="M37 1231v88q0 135 87.5 223t223.5 88q144 0 231 -81.5t87 -229.5q0 -83 -33 -167t-75 -144.5t-92 -142.5t-73 -150q-27 -83 -51 -246h-104q-13 93 -13 143q0 143 78 320q17 38 51.5 91.5t61.5 93t48 92.5t21 102q0 66 -34.5 102.5t-100.5 36.5q-55 0 -94 -38.5t-39 -92.5 v-49zM223 106q0 49 24 85t66 36q43 0 66.5 -34.5t23.5 -86.5q0 -50 -24 -84t-66 -34t-66 35.5t-24 82.5z" />
<glyph unicode="@" horiz-adv-x="1380" d="M51 551q0 194 43 355.5t127 283.5t218.5 190t308.5 68q579 0 579 -729q0 -309 -84 -477t-229 -168q-128 0 -201 84q-17 -18 -30 -29t-45.5 -24t-71.5 -13q-95 0 -156 77.5t-61 188.5v361q0 113 56 190.5t150 77.5q44 0 78.5 -18t46.5 -41v51l138 51v-760q12 -55 79 -55 q62 0 103.5 46.5t65.5 160.5t24 297q0 266 -117.5 422.5t-324.5 156.5q-173 0 -299 -95.5t-190 -263t-64 -388.5q0 -144 29.5 -275.5t76 -223t98 -152t99.5 -82.5l-72 -142q-66 24 -130 90t-120 171.5t-90.5 265.5t-34.5 348zM582 358q0 -46 28.5 -79t69.5 -33t70.5 33 t29.5 79v361q0 46 -29.5 80.5t-70.5 34.5t-69.5 -34.5t-28.5 -80.5v-361z" />
<glyph unicode="A" horiz-adv-x="739" d="M43 0l246 1604h166l241 -1604h-182l-27 199h-227l-24 -199h-193zM281 367h186l-92 702z" />
<glyph unicode="B" horiz-adv-x="749" d="M68 0v1604h286q155 0 234.5 -87.5t79.5 -234.5v-223q0 -190 -131 -236q153 -47 153 -237v-264q0 -145 -80.5 -233.5t-220.5 -88.5h-321zM248 180h106q80 0 118 41.5t38 130.5v211q0 93 -36.5 134.5t-119.5 41.5h-106v-559zM248 907h92q71 0 112.5 42t41.5 132v170 q0 87 -34 129.5t-120 42.5h-92v-516z" />
<glyph unicode="C" d="M63 283v1036q0 152 88 231.5t224 79.5q133 0 222 -86t89 -225v-53h-180v53q0 64 -37 97.5t-94 33.5q-59 0 -95 -33t-36 -98v-1036q0 -55 38 -93t93 -38q54 0 92.5 38t38.5 93v20l180 59v-79q0 -145 -88 -228.5t-223 -83.5q-132 0 -222 84.5t-90 227.5z" />
<glyph unicode="D" horiz-adv-x="757" d="M68 0v1604h311q142 0 226.5 -88.5t84.5 -225.5v-977q0 -135 -84.5 -224t-226.5 -89h-311zM248 180h131q55 0 93 38.5t38 94.5v977q0 61 -37 97t-94 36h-131v-1243z" />
<glyph unicode="E" horiz-adv-x="645" d="M68 0v1604h530v-181h-350v-508h203v-180h-203v-555h350v-180h-530z" />
<glyph unicode="F" horiz-adv-x="645" d="M68 0v1604h553v-181h-373v-561h235v-180h-235v-682h-180z" />
<glyph unicode="G" horiz-adv-x="765" d="M63 283v1036q0 143 89.5 227t222.5 84t222 -85.5t89 -225.5v-53h-180v53q0 66 -36.5 98.5t-94.5 32.5t-94.5 -33.5t-36.5 -97.5v-1036q0 -55 41.5 -93t97.5 -38t97.5 38t41.5 93v436h-149v166h329v-885h-120l-19 68q-66 -97 -203 -97q-57 0 -109 19.5t-94.5 56.5t-68 98 t-25.5 138z" />
<glyph unicode="H" horiz-adv-x="761" d="M68 0v1604h180v-701h262v701h180v-1604h-180v723h-262v-723h-180z" />
<glyph unicode="I" horiz-adv-x="319" d="M68 0v1604h180v-1604h-180z" />
<glyph unicode="J" horiz-adv-x="716" d="M25 283v79l180 -59v-20q0 -59 33.5 -95t99.5 -36q131 0 131 149v1303h180v-1305q0 -170 -85.5 -249t-225.5 -79q-138 0 -225.5 90t-87.5 222z" />
<glyph unicode="K" horiz-adv-x="802" d="M68 0v1604h180v-545l301 545h215l-377 -646l377 -958h-213l-303 815v-815h-180z" />
<glyph unicode="L" horiz-adv-x="581" d="M68 0v1604h180v-1424h309v-180h-489z" />
<glyph unicode="M" horiz-adv-x="1042" d="M68 0v1604h219l243 -1186l265 1186h180v-1604h-166v903l-211 -903h-154l-208 903v-903h-168z" />
<glyph unicode="N" horiz-adv-x="761" d="M68 0v1604h180l274 -990v990h168v-1604h-160l-292 977v-977h-170z" />
<glyph unicode="O" horiz-adv-x="751" d="M63 283v1036q0 142 90 226.5t222 84.5q135 0 223 -83.5t88 -227.5v-1036q0 -136 -89.5 -224t-221.5 -88q-130 0 -221 87.5t-91 224.5zM244 283q0 -61 37 -96t94 -35q56 0 93.5 35t37.5 96v1036q0 60 -37.5 95.5t-93.5 35.5q-57 0 -94 -35.5t-37 -95.5v-1036z" />
<glyph unicode="P" horiz-adv-x="722" d="M68 0v1604h321q145 0 223 -86t78 -236v-293q0 -141 -76.5 -233t-224.5 -92h-141v-664h-180zM248 846h106q77 0 116.5 40t39.5 134v231q0 95 -35.5 133.5t-120.5 38.5h-106v-577z" />
<glyph unicode="Q" horiz-adv-x="798" d="M59 283v1036q0 129 92 220t220 91q131 0 221 -90.5t90 -220.5v-1036q0 -104 -57 -181l120 -122l-120 -119l-131 135q-61 -25 -123 -25q-132 0 -222 84.5t-90 227.5zM240 276q0 -60 37 -94.5t94 -34.5q56 0 93.5 34t37.5 95v1043q0 63 -37 97t-94 34q-58 0 -94.5 -33.5 t-36.5 -97.5v-1043z" />
<glyph unicode="R" horiz-adv-x="755" d="M68 0v1604h311q147 0 224 -82t77 -240v-221q0 -84 -38 -139.5t-105 -77.5q68 -22 110.5 -86t42.5 -170v-588h-180v565q0 106 -34 141t-122 35h-106v-741h-180zM248 907h94q83 0 120.5 40t37.5 134v170q0 92 -32.5 132t-125.5 40h-94v-516z" />
<glyph unicode="S" horiz-adv-x="747" d="M55 283v86l181 -39v-47q0 -55 41 -94t96 -39q69 0 105 42t36 111q0 107 -29 176q-23 59 -62 124t-70.5 108t-86 114.5t-78.5 104.5q-69 97 -101 178t-32 195q0 149 82 238t230 89q140 0 225.5 -80t85.5 -231v-88l-180 39v49q0 54 -38.5 92.5t-92.5 38.5q-134 0 -134 -180 q0 -31 11.5 -68t25 -66t41.5 -71.5t44.5 -65t52 -68t45.5 -59.5q55 -72 88.5 -121.5t73 -120t58.5 -140.5t19 -142q0 -61 -11 -115t-36 -102.5t-62 -83.5t-93 -55.5t-125 -20.5q-138 0 -224 89.5t-86 222.5z" />
<glyph unicode="T" horiz-adv-x="589" d="M20 1423v181h549v-181h-186v-1423h-180v1423h-183z" />
<glyph unicode="U" horiz-adv-x="757" d="M66 283v1321h180v-1321q0 -66 36 -98.5t95 -32.5q58 0 94.5 32.5t36.5 98.5v1321h180v-1321q0 -140 -89 -226t-222 -86q-131 0 -221 86.5t-90 225.5z" />
<glyph unicode="V" horiz-adv-x="665" d="M20 1604h207l117 -1074l117 1074h184l-231 -1604h-168z" />
<glyph unicode="W" horiz-adv-x="1052" d="M20 1604h207l97 -1004l137 1004h155l136 -1004l96 1004h184l-211 -1604h-166l-131 999l-131 -999h-168z" />
<glyph unicode="X" horiz-adv-x="817" d="M59 0l244 809l-235 795h204l146 -543l133 543h197l-236 -783l246 -821h-207l-150 580l-145 -580h-197z" />
<glyph unicode="Y" horiz-adv-x="757" d="M20 1604h205l150 -576l149 576h195l-258 -846v-758h-182v750z" />
<glyph unicode="Z" horiz-adv-x="739" d="M57 0v141l416 1268h-407v195h614v-142l-410 -1267h410v-195h-623z" />
<glyph unicode="[" horiz-adv-x="503" d="M184 -154v1919h293v-123h-164v-1669h164v-127h-293z" />
<glyph unicode="\" horiz-adv-x="684" d="M25 1692h100l534 -1780h-108z" />
<glyph unicode="]" horiz-adv-x="503" d="M41 -27h164v1669h-164v123h293v-1919h-293v127z" />
<glyph unicode="^" horiz-adv-x="679" d="M55 1087v203l285 283l283 -283v-203l-283 283z" />
<glyph unicode="_" horiz-adv-x="870" d="M20 -29h840v-123h-840v123z" />
<glyph unicode="`" horiz-adv-x="602" d="M121 1669h170l190 -323h-110z" />
<glyph unicode="a" d="M49 299q0 87 25 162.5t62.5 126.5t89 99t97.5 80t96 69.5t77 66.5v62q0 61 -26.5 97t-80.5 36q-105 0 -133 -84l-152 98q47 75 110.5 115.5t176.5 40.5q129 0 207 -81t78 -222v-965h-119l-41 72q-59 -101 -194 -101q-52 0 -99 19t-87 57t-63.5 103t-23.5 149zM225 315 q0 -78 34.5 -120.5t100.5 -42.5q68 0 104 47t36 116v355q-35 -22 -53 -34t-57 -41.5t-62.5 -55.5t-50 -62t-39.5 -77t-13 -85z" />
<glyph unicode="b" horiz-adv-x="763" d="M61 0v1610l181 59v-459q51 58 166 58q132 0 213 -80.5t81 -222.5v-662q0 -87 -34.5 -162t-102.5 -122.5t-157 -47.5q-110 0 -187 88l-41 -59h-119zM242 303q0 -73 39 -112t98 -39q63 0 103 35t40 116v662q0 64 -40.5 98.5t-100.5 34.5q-59 0 -99 -35t-40 -98v-662z" />
<glyph unicode="c" horiz-adv-x="739" d="M61 283v682q0 158 84.5 230.5t227.5 72.5q138 0 224.5 -74t86.5 -229v-54h-180v54q0 63 -37 98t-94 35q-58 0 -94.5 -34.5t-36.5 -98.5v-682q0 -61 37 -96t94 -35t94 34.5t37 96.5v20l180 59v-79q0 -151 -88 -231.5t-223 -80.5q-137 0 -224.5 83t-87.5 229z" />
<glyph unicode="d" horiz-adv-x="737" d="M43 297v668q0 140 72 221.5t202 81.5q62 0 107 -17t61 -43v402l183 59v-1669h-121l-41 59q-12 -32 -64.5 -60t-130.5 -28q-124 0 -196 88t-72 238zM223 283q0 -64 36.5 -97.5t96.5 -33.5q55 0 92 34.5t37 96.5v682q0 63 -37 98t-92 35q-60 0 -96.5 -34t-36.5 -99v-682z " />
<glyph unicode="e" d="M61 283v682q0 143 87.5 223t224.5 80q133 0 222 -87.5t89 -240.5q0 -84 -10.5 -149.5t-36 -120t-57 -95t-86.5 -81.5t-110 -73t-142 -77v-61q0 -62 33.5 -96.5t91.5 -34.5q55 0 88.5 34.5t33.5 96.5v20l183 59v-79q0 -144 -86 -228t-219 -84q-134 0 -220 84t-86 228z M242 543q157 74 209.5 156t52.5 231q0 88 -36 128t-95 40q-58 0 -94.5 -34.5t-36.5 -98.5v-422z" />
<glyph unicode="f" horiz-adv-x="602" d="M45 1092v159h80v107q0 144 90 227.5t223 83.5q72 0 144 -29l-72 -174q-30 23 -72 23q-58 0 -95.5 -34.5t-37.5 -96.5v-107h133v-159h-133v-1092h-180v1092h-80z" />
<glyph unicode="g" horiz-adv-x="868" d="M33 -100q0 90 55 154t152 89q-62 20 -62 90q0 32 26 61t75 40q-164 84 -164 274v357q0 141 81.5 222t219.5 81q128 0 188 -31h223l-88 -137v-492q0 -270 -290 -295q-113 -9 -113 -88q0 -22 14.5 -43.5t42.5 -25.5h391l-100 -181h-367q-108 0 -108 -73q0 -36 27 -55 t69 -19h330l-98 -178h-236q-126 0 -197 67.5t-71 182.5zM291 604q0 -62 38.5 -96.5t96.5 -34.5q57 0 96 34.5t39 96.5v365q0 65 -38.5 99t-96.5 34q-59 0 -97 -33.5t-38 -99.5v-365z" />
<glyph unicode="h" horiz-adv-x="761" d="M61 0v1610l181 59v-448q47 47 168 47q124 0 208 -81t84 -222v-965h-180v965q0 66 -40.5 99.5t-100.5 33.5t-99.5 -33t-39.5 -100v-965h-181z" />
<glyph unicode="i" horiz-adv-x="307" d="M61 0v1251h181v-1251h-181zM61 1559q0 44 27.5 77t67.5 33q39 0 65.5 -32.5t26.5 -77.5q-2 -48 -27.5 -80.5t-64.5 -32.5q-41 0 -68 33t-27 80z" />
<glyph unicode="j" horiz-adv-x="358" d="M-147 -348l47 182q35 -27 77 -27q58 0 95 35t37 99v1310h180v-1310q0 -132 -87 -223t-225 -91q-69 0 -124 25zM109 1559q0 44 27.5 77t66.5 33q40 0 67 -32.5t27 -77.5q0 -48 -26.5 -80.5t-67.5 -32.5q-39 0 -66.5 33.5t-27.5 79.5z" />
<glyph unicode="k" horiz-adv-x="745" d="M68 0v1610l180 59v-788l235 370h199l-299 -467l336 -784h-209l-262 668v-668h-180z" />
<glyph unicode="l" horiz-adv-x="319" d="M68 0v1610l180 59v-1669h-180z" />
<glyph unicode="m" horiz-adv-x="1148" d="M68 0v1251h118l41 -59q54 76 160 76q151 0 191 -123q30 63 82.5 93t154.5 30q112 0 189 -83t77 -216v-969h-180v965q0 65 -31.5 99t-87.5 34t-86 -34t-30 -99v-965h-183v965q0 64 -30.5 98.5t-85.5 34.5q-58 0 -88.5 -34t-30.5 -99v-965h-180z" />
<glyph unicode="n" horiz-adv-x="778" d="M68 0v1251h118l41 -59q69 76 197 76t207.5 -82t79.5 -215v-971h-181v965q0 63 -41 98t-100 35q-58 0 -99.5 -35t-41.5 -98v-965h-180z" />
<glyph unicode="o" horiz-adv-x="747" d="M61 283v682q0 138 88.5 220.5t223.5 82.5q132 0 221.5 -83t89.5 -220v-682q0 -141 -89.5 -226.5t-221.5 -85.5q-135 0 -223.5 85t-88.5 227zM242 283q0 -61 37 -96t94 -35q56 0 93.5 35t37.5 96v682q0 63 -37 98t-94 35q-58 0 -94.5 -34.5t-36.5 -98.5v-682z" />
<glyph unicode="p" horiz-adv-x="737" d="M68 -350v1601h118l41 -59q72 76 185 76q132 0 205 -80.5t73 -220.5v-684q0 -153 -79 -232.5t-191 -79.5q-109 0 -172 70v-391h-180zM248 283q0 -62 36.5 -96.5t94.5 -34.5t94.5 34.5t36.5 96.5v682q0 60 -37 96.5t-94 36.5t-94 -36.5t-37 -96.5v-682z" />
<glyph unicode="q" horiz-adv-x="737" d="M43 283v682q0 140 87 221.5t208 81.5q111 0 168 -76l41 59h121v-1601h-183v391q-12 -25 -62 -47.5t-93 -22.5q-143 0 -215 85t-72 227zM223 283q0 -59 37.5 -95t95.5 -36q54 0 91.5 35.5t37.5 95.5v682q0 63 -37 98t-92 35q-59 0 -96 -34.5t-37 -98.5v-682z" />
<glyph unicode="r" horiz-adv-x="493" d="M68 0v1251h118l41 -80q21 39 59.5 68t92.5 29q71 0 106 -35l-61 -162q-13 16 -55 16q-49 0 -85 -40.5t-36 -100.5v-946h-180z" />
<glyph unicode="s" horiz-adv-x="743" d="M55 283v86l181 -39v-47q0 -59 37 -95t96 -36q139 0 139 131q0 85 -47 145q-40 45 -141.5 127t-147.5 137q-100 122 -100 271q0 135 86 220t221 85q139 0 216 -82.5t77 -220.5v-86l-176 41v45q0 61 -33.5 97t-89.5 36q-57 0 -89 -37t-32 -100q0 -54 29 -104.5t77 -93.5 t98.5 -83.5t104 -92.5t84.5 -102q47 -79 47 -170q0 -93 -33 -168.5t-108 -125.5t-182 -50q-138 0 -226 87t-88 225z" />
<glyph unicode="t" horiz-adv-x="667" d="M41 1092v159h115v228l180 61v-289h237v-159h-237v-811q0 -129 92 -129q59 0 82 41l125 -136q-35 -39 -89.5 -62.5t-109.5 -23.5q-140 0 -210 79t-70 231v811h-115z" />
<glyph unicode="u" horiz-adv-x="749" d="M66 303v948h180v-968q0 -62 35 -96.5t92 -34.5t92 33t35 98v968h180v-1251h-119l-41 59q-63 -88 -190 -88q-123 0 -193.5 87t-70.5 245z" />
<glyph unicode="v" horiz-adv-x="665" d="M20 1251h205l117 -786l117 786h186l-231 -1251h-168z" />
<glyph unicode="w" horiz-adv-x="1052" d="M20 1251h201l96 -790l138 790h153l137 -790l97 790h190l-221 -1251h-166l-121 745l-123 -745h-165z" />
<glyph unicode="x" horiz-adv-x="815" d="M59 0l254 653l-233 598h205l129 -389l127 389h192l-231 -610l256 -641h-209l-150 438l-145 -438h-195z" />
<glyph unicode="y" horiz-adv-x="739" d="M45 274v977h180v-968q0 -64 36.5 -97.5t96.5 -33.5q56 0 92.5 34t36.5 97v968h183v-1601h-183v389q-39 -68 -163 -68q-54 0 -102 16.5t-88.5 51t-64.5 95t-24 140.5z" />
<glyph unicode="z" horiz-adv-x="710" d="M66 0v141l383 918h-377v192h573v-141l-375 -917h375v-193h-579z" />
<glyph unicode="{" horiz-adv-x="559" d="M41 770v129q34 3 57 15t36 29.5t19.5 50t8.5 64t2 85.5v330q0 71 20 128t53.5 93.5t78.5 61.5t93 35.5t99 10.5h20v-125h-32q-98 0 -152.5 -60t-54.5 -175v-307q0 -61 -3 -100t-13.5 -77.5t-29.5 -61t-51 -39t-79 -23.5v-3q46 -8 78.5 -26.5t51.5 -42.5t29.5 -62 t13.5 -74.5t3 -90.5v-238q0 -183 48 -252.5t173 -69.5h18v-129h-16q-348 0 -348 375v307q0 138 -24 188t-99 54z" />
<glyph unicode="|" horiz-adv-x="358" d="M115 -170v1892h129v-1892h-129z" />
<glyph unicode="}" horiz-adv-x="559" d="M33 -25h18q125 0 173 69.5t48 252.5v238q0 53 3 90t13.5 75t29.5 62t52 42.5t79 26.5v3q-47 7 -79 23.5t-51.5 39.5t-30 61t-13.5 77.5t-3 99.5v307q0 115 -54 175t-152 60h-33v125h20q51 0 99 -10.5t93 -35.5t78.5 -61.5t53.5 -93.5t20 -128v-330q0 -54 2 -85.5t8.5 -64 t19.5 -50t36 -29.5t57 -15v-129q-75 -4 -99 -54t-24 -188v-307q0 -375 -348 -375h-16v129z" />
<glyph unicode="~" horiz-adv-x="704" d="M47 549v229q26 62 66 96.5t86 34.5q43 0 87 -19.5t74 -43t66.5 -43t67.5 -19.5q53 0 90 47.5t73 141.5v-230q-34 -73 -75 -103t-101 -30q-27 0 -65.5 19t-71 42.5t-71.5 42.5t-68 19q-47 0 -84.5 -49.5t-73.5 -134.5z" />
<glyph unicode="&#xa1;" horiz-adv-x="346" d="M23 0l77 1116h60l78 -1116h-215zM39 1497q0 50 24 84.5t68 34.5q42 0 66 -36t24 -83q0 -49 -24 -85t-66 -36q-44 0 -68 34.5t-24 86.5z" />
<glyph unicode="&#xa2;" horiz-adv-x="696" d="M39 567v398q0 137 81.5 220t205.5 91v326h69v-330q114 -12 191.5 -96t77.5 -211v-54h-183v54q0 43 -24 76.5t-62 45.5v-643q38 12 62 46t24 77v21l183 61v-82q0 -114 -78.5 -203t-190.5 -106v-252h-69v250q-120 7 -203.5 98t-83.5 213zM219 567q0 -47 30.5 -83t76.5 -44 v656q-46 -11 -76.5 -47.5t-30.5 -83.5v-398z" />
<glyph unicode="&#xa3;" horiz-adv-x="800" d="M53 725v158h74v436q0 128 92.5 219.5t220.5 91.5q129 0 220.5 -91t91.5 -220v-53h-181v53q0 54 -38.5 92.5t-92.5 38.5q-55 0 -94 -38.5t-39 -92.5v-436h262v-158h-262v-545h428v-180h-608v725h-74z" />
<glyph unicode="&#xa5;" horiz-adv-x="641" d="M35 1604h219l76 -643l76 643h194l-180 -877h129v-158h-141v-569h-193v569h-152v158h146z" />
<glyph unicode="&#xa6;" horiz-adv-x="358" d="M115 -170v803h129v-803h-129zM115 961v761h129v-761h-129z" />
<glyph unicode="&#xa7;" horiz-adv-x="641" d="M59 225v99h174v-80q0 -86 20.5 -115t61.5 -29q42 0 62 29t20 115q0 52 -10 89t-32.5 63t-45 41.5t-61.5 35.5q-178 74 -178 318q0 112 25.5 174t72.5 96q-98 88 -98 266q0 305 237 305q126 0 184 -69t58 -215v-103h-168v84q0 84 -18 112.5t-56 28.5q-39 0 -55 -27.5 t-16 -113.5q0 -60 18.5 -101.5t48.5 -64.5t65.5 -42t71.5 -43t66 -57t48.5 -94t18.5 -145q0 -196 -94 -266q94 -97 94 -268q0 -157 -64 -234t-194 -77q-256 0 -256 288zM244 766q0 -82 20.5 -111.5t59.5 -29.5t56 28t17 113v37q0 88 -17.5 116.5t-57.5 28.5q-42 0 -60 -28.5 t-18 -116.5v-37z" />
<glyph unicode="&#xa8;" horiz-adv-x="729" d="M121 1559q0 44 27.5 77t66.5 33q40 0 66 -32.5t26 -77.5q-2 -49 -27 -81t-65 -32q-39 0 -66.5 33.5t-27.5 79.5zM422 1559q0 44 27.5 77t66.5 33q40 0 66 -32.5t26 -77.5q-2 -49 -27 -81t-65 -32q-39 0 -66.5 33.5t-27.5 79.5z" />
<glyph unicode="&#xaa;" horiz-adv-x="460" d="M37 969q0 66 20 119.5t53.5 90.5t66.5 64t71.5 55t56.5 48v36q0 34 -16.5 56t-46.5 22q-64 0 -78 -53l-92 61q19 41 64.5 71t105.5 30q75 0 123.5 -54.5t48.5 -132.5v-579h-72l-25 45q-28 -55 -114 -55q-63 0 -114.5 48.5t-51.5 127.5zM145 981q0 -33 23.5 -56.5 t56.5 -23.5t56.5 28t23.5 62v213q-26 -17 -38 -25.5t-40 -32.5t-42.5 -45t-27 -53.5t-12.5 -66.5z" />
<glyph unicode="&#xab;" horiz-adv-x="735" d="M70 784v134l247 260v-199l-147 -125l147 -127v-192zM418 784v134l248 260v-199l-148 -125l148 -127v-192z" />
<glyph unicode="&#xac;" horiz-adv-x="714" d="M31 668v176h647v-471h-172v295h-475z" />
<glyph unicode="&#xad;" horiz-adv-x="655" d="M68 725v158h516v-158h-516z" />
<glyph unicode="&#xaf;" horiz-adv-x="874" d="M121 1434v137h639v-137h-639z" />
<glyph unicode="&#xb0;" horiz-adv-x="628" d="M57 1374q0 134 58.5 204.5t197.5 70.5q136 0 197 -70t61 -205q0 -280 -258 -280q-256 0 -256 280zM160 1374q0 -92 35.5 -140t117.5 -48q158 0 158 188q0 84 -39 135.5t-119 51.5q-79 0 -116 -51.5t-37 -135.5z" />
<glyph unicode="&#xb1;" horiz-adv-x="886" d="M45 0v150h799v-150h-799zM137 668v176h225v246h170v-246h209v-176h-209v-250h-170v250h-225z" />
<glyph unicode="&#xb2;" horiz-adv-x="485" d="M63 741v181q0 80 46 165q40 73 84 145.5t63.5 104t33 65t13.5 62.5q0 25 -17.5 41.5t-41.5 16.5q-28 0 -44 -16t-16 -42v-37l-121 -22v59q0 78 48 129.5t133 51.5q80 0 129 -52t49 -129q0 -30 -1.5 -46t-12.5 -47.5t-33 -72.5q-14 -26 -69 -117.5t-88.5 -158.5 t-33.5 -100v-58h238v-123h-359z" />
<glyph unicode="&#xb3;" horiz-adv-x="485" d="M59 907v60l121 -41v-19q0 -27 16 -43t44 -16q25 0 42 16.5t17 42.5v142q0 47 -24.5 67.5t-86.5 20.5v102q61 0 82 18.5t21 67.5v139q0 26 -14 42t-37 16q-28 0 -44 -16t-16 -42v-41h-121v41q0 85 51.5 133t129.5 48q73 0 122.5 -52.5t49.5 -128.5v-147q0 -86 -64 -123 q70 -41 70 -137v-150q0 -81 -52 -131.5t-126 -50.5q-75 0 -128 53.5t-53 128.5z" />
<glyph unicode="&#xb4;" horiz-adv-x="602" d="M121 1346l190 323h170l-248 -323h-112z" />
<glyph unicode="&#xb6;" horiz-adv-x="960" d="M47 1368q0 106 77 171t232 65h549l-98 -189v-1661h-172v1673h-186v-1673h-175v1391q-102 6 -164.5 72.5t-62.5 150.5z" />
<glyph unicode="&#xb7;" horiz-adv-x="290" d="M53 766q0 50 23.5 85.5t66.5 35.5t66.5 -34.5t23.5 -86.5q0 -50 -24 -84.5t-66 -34.5q-43 0 -66.5 36t-23.5 83z" />
<glyph unicode="&#xb8;" horiz-adv-x="393" d="M121 -350l10 215q1 44 20.5 66t45.5 22q31 0 53 -17.5t22 -54.5q0 -44 -18 -88l-57 -143h-76z" />
<glyph unicode="&#xb9;" horiz-adv-x="303" d="M47 1464v105q32 0 50 15.5t18 43.5h121v-887h-121v723h-68z" />
<glyph unicode="&#xba;" horiz-adv-x="464" d="M45 973v409q0 77 54.5 132t133.5 55q75 0 131 -55.5t56 -131.5v-409q0 -77 -55.5 -132t-131.5 -55q-79 0 -133.5 54.5t-54.5 132.5zM154 973q0 -34 22 -56t57 -22q31 0 54.5 22.5t23.5 55.5v409q0 32 -23.5 55t-54.5 23q-35 0 -57 -22.5t-22 -55.5v-409z" />
<glyph unicode="&#xbb;" horiz-adv-x="735" d="M70 535v192l147 127l-147 125v199l247 -260v-134zM418 535v192l147 127l-147 125v199l248 -260v-134z" />
<glyph unicode="&#xbc;" horiz-adv-x="1048" d="M63 0l785 1604h129l-780 -1604h-134zM147 1464v105q32 0 50 15.5t18 43.5h121v-887h-121v723h-68zM594 281l55 411h115l-39 -291h86v465h121v-465h51v-120h-51v-301h-121v301h-217z" />
<glyph unicode="&#xbd;" horiz-adv-x="1093" d="M63 0l785 1604h129l-780 -1604h-134zM150 1464v105q32 0 49.5 15.5t17.5 43.5h121v-887h-121v723h-67zM672 -20v180q0 83 45 166q40 73 84 145t63.5 104t33 65t13.5 62q0 25 -17.5 41.5t-41.5 16.5q-28 0 -43.5 -16t-15.5 -42v-36l-121 -23v59q0 78 47.5 129.5 t132.5 51.5q80 0 129 -52t49 -129q0 -30 -1.5 -46t-12.5 -47t-33 -72q-13 -25 -68.5 -117.5t-88.5 -159.5t-33 -100v-58h237v-122h-358z" />
<glyph unicode="&#xbe;" horiz-adv-x="1050" d="M63 907v60l121 -41v-19q0 -27 16 -43t44 -16q25 0 42 16.5t17 42.5v142q0 47 -24 67.5t-86 20.5v102q61 0 81.5 18.5t20.5 67.5v139q0 26 -14 42t-37 16q-28 0 -44 -16t-16 -42v-41h-121v41q0 85 51.5 133t129.5 48q73 0 122.5 -52.5t49.5 -128.5v-147q0 -86 -64 -123 q70 -41 70 -137v-150q0 -81 -52 -131.5t-126 -50.5q-75 0 -128 53.5t-53 128.5zM74 0l784 1604h129l-780 -1604h-133zM590 281l55 411h115l-39 -291h86v465h121v-465h51v-120h-51v-301h-121v301h-217z" />
<glyph unicode="&#xbf;" horiz-adv-x="696" d="M-6 293q0 83 33 167t74.5 144.5t91.5 142.5t73 150q27 83 51 246h105q12 -86 12 -144q0 -142 -78 -319q-17 -38 -51.5 -91.5t-61.5 -93t-48 -92.5t-21 -102q0 -66 34.5 -102.5t100.5 -36.5q55 0 94 38.5t39 92.5v49l181 39v-88q0 -135 -88 -223t-224 -88 q-144 0 -230.5 81.5t-86.5 229.5zM256 1505q0 50 24 84.5t66 34.5t66 -36t24 -83q0 -49 -24 -85t-66 -36q-43 0 -66.5 34.5t-23.5 86.5z" />
<glyph unicode="&#xc0;" horiz-adv-x="739" d="M43 0l246 1604h166l241 -1604h-182l-27 199h-227l-24 -199h-193zM129 2021h170l190 -323h-110zM281 367h186l-92 702z" />
<glyph unicode="&#xc1;" horiz-adv-x="739" d="M43 0l246 1604h166l241 -1604h-182l-27 199h-227l-24 -199h-193zM250 1698l190 323h170l-248 -323h-112zM281 367h186l-92 702z" />
<glyph unicode="&#xc2;" horiz-adv-x="739" d="M43 0l246 1604h166l241 -1604h-182l-27 199h-227l-24 -199h-193zM66 1698l223 323h162l227 -323h-172l-135 219l-135 -219h-170zM281 367h186l-92 702z" />
<glyph unicode="&#xc3;" horiz-adv-x="739" d="M43 0l246 1604h166l241 -1604h-182l-27 199h-227l-24 -199h-193zM43 1831q40 73 87.5 104t111.5 31q66 0 134.5 -32.5t117.5 -32.5q38 0 64 16t48 61l88 -69q-21 -64 -75.5 -102t-114.5 -38q-50 0 -94 17.5t-80.5 35t-67.5 17.5q-42 0 -74.5 -18t-64.5 -66zM281 367h186 l-92 702z" />
<glyph unicode="&#xc4;" horiz-adv-x="739" d="M43 0l246 1604h166l241 -1604h-182l-27 199h-227l-24 -199h-193zM125 1911q0 44 27.5 77t66.5 33q40 0 66 -32.5t26 -77.5q-2 -49 -27 -81t-65 -32q-39 0 -66.5 33.5t-27.5 79.5zM281 367h186l-92 702zM426 1911q0 44 27.5 77t66.5 33q40 0 66 -32.5t26 -77.5 q-2 -49 -27 -81t-65 -32q-39 0 -66.5 33.5t-27.5 79.5z" />
<glyph unicode="&#xc5;" horiz-adv-x="739" d="M43 0l246 1604h166l241 -1604h-182l-27 199h-227l-24 -199h-193zM213 1862q0 70 44.5 114.5t111.5 44.5q68 0 112.5 -44.5t44.5 -114.5q0 -71 -45 -117.5t-112 -46.5q-66 0 -111 47t-45 117zM281 367h186l-92 702zM285 1862q0 -39 24 -64.5t60 -25.5q37 0 61.5 25.5 t24.5 64.5q0 37 -24.5 61.5t-61.5 24.5q-35 0 -59.5 -24.5t-24.5 -61.5z" />
<glyph unicode="&#xc6;" horiz-adv-x="948" d="M47 0l232 1604h610v-181h-234v-528h168v-180h-168v-533h234v-182h-416v199h-207l-22 -199h-197zM285 383h188v1040h-51z" />
<glyph unicode="&#xc7;" d="M63 283v1036q0 152 88 231.5t224 79.5q133 0 222 -86t89 -225v-53h-180v53q0 64 -37 97.5t-94 33.5q-59 0 -95 -33t-36 -98v-1036q0 -55 38 -93t93 -38q54 0 92.5 38t38.5 93v20l180 59v-79q0 -145 -88 -228.5t-223 -83.5q-132 0 -222 84.5t-90 227.5zM295 -350l10 215 q1 44 20.5 66t45.5 22q31 0 53 -17.5t22 -54.5q0 -44 -18 -88l-57 -143h-76z" />
<glyph unicode="&#xc8;" horiz-adv-x="645" d="M68 0v1604h530v-181h-350v-508h203v-180h-203v-555h350v-180h-530zM102 2021h170l191 -323h-111z" />
<glyph unicode="&#xc9;" horiz-adv-x="645" d="M68 0v1604h530v-181h-350v-508h203v-180h-203v-555h350v-180h-530zM221 1698l191 323h170l-248 -323h-113z" />
<glyph unicode="&#xca;" horiz-adv-x="645" d="M37 1698l223 323h162l227 -323h-172l-135 219l-135 -219h-170zM68 0v1604h530v-181h-350v-508h203v-180h-203v-555h350v-180h-530z" />
<glyph unicode="&#xcb;" horiz-adv-x="645" d="M68 0v1604h530v-181h-350v-508h203v-180h-203v-555h350v-180h-530zM98 1911q0 44 28 77t67 33q40 0 66 -32.5t26 -77.5q-2 -49 -27 -81t-65 -32q-39 0 -67 33.5t-28 79.5zM399 1911q0 44 28 77t67 33q40 0 66 -32.5t26 -77.5q-2 -49 -27 -81t-65 -32q-39 0 -67 33.5 t-28 79.5z" />
<glyph unicode="&#xcc;" horiz-adv-x="319" d="M-80 2021h170l191 -323h-111zM68 0v1604h180v-1604h-180z" />
<glyph unicode="&#xcd;" horiz-adv-x="319" d="M41 1698l190 323h170l-247 -323h-113zM68 0v1604h180v-1604h-180z" />
<glyph unicode="&#xce;" horiz-adv-x="319" d="M-145 1698l223 323h162l227 -323h-172l-135 219l-135 -219h-170zM68 0v1604h180v-1604h-180z" />
<glyph unicode="&#xcf;" horiz-adv-x="319" d="M-84 1911q0 44 27.5 77t66.5 33q40 0 66 -32.5t26 -77.5q-2 -49 -27 -81t-65 -32q-39 0 -66.5 33.5t-27.5 79.5zM68 0v1604h180v-1604h-180zM217 1911q0 44 27.5 77t66.5 33q40 0 66 -32.5t26 -77.5q-2 -49 -27 -81t-65 -32q-39 0 -66.5 33.5t-27.5 79.5z" />
<glyph unicode="&#xd0;" horiz-adv-x="757" d="M-39 725v158h107v721h311q130 0 220.5 -93t90.5 -221v-977q0 -132 -90 -222.5t-221 -90.5h-311v725h-107zM248 180h131q55 0 93 38.5t38 94.5v977q0 56 -38 94.5t-93 38.5h-131v-540h131v-158h-131v-545z" />
<glyph unicode="&#xd1;" horiz-adv-x="761" d="M55 1831q40 73 87.5 104t111.5 31q66 0 134.5 -32.5t117.5 -32.5q38 0 64 16t48 61l89 -69q-21 -64 -76 -102t-115 -38q-50 0 -94 17.5t-80.5 35t-67.5 17.5q-42 0 -74.5 -18t-64.5 -66zM68 0v1604h180l274 -990v990h168v-1604h-160l-292 977v-977h-170z" />
<glyph unicode="&#xd2;" horiz-adv-x="751" d="M63 283v1036q0 142 90 226.5t222 84.5q135 0 223 -83.5t88 -227.5v-1036q0 -136 -89.5 -224t-221.5 -88q-130 0 -221 87.5t-91 224.5zM135 2021h170l191 -323h-111zM244 283q0 -61 37 -96t94 -35q56 0 93.5 35t37.5 96v1036q0 60 -37.5 95.5t-93.5 35.5q-57 0 -94 -35.5 t-37 -95.5v-1036z" />
<glyph unicode="&#xd3;" horiz-adv-x="751" d="M63 283v1036q0 142 90 226.5t222 84.5q135 0 223 -83.5t88 -227.5v-1036q0 -136 -89.5 -224t-221.5 -88q-130 0 -221 87.5t-91 224.5zM244 283q0 -61 37 -96t94 -35q56 0 93.5 35t37.5 96v1036q0 60 -37.5 95.5t-93.5 35.5q-57 0 -94 -35.5t-37 -95.5v-1036zM256 1698 l190 323h170l-247 -323h-113z" />
<glyph unicode="&#xd4;" horiz-adv-x="751" d="M63 283v1036q0 142 90 226.5t222 84.5q135 0 223 -83.5t88 -227.5v-1036q0 -136 -89.5 -224t-221.5 -88q-130 0 -221 87.5t-91 224.5zM70 1698l223 323h162l227 -323h-172l-135 219l-135 -219h-170zM244 283q0 -61 37 -96t94 -35q56 0 93.5 35t37.5 96v1036 q0 60 -37.5 95.5t-93.5 35.5q-57 0 -94 -35.5t-37 -95.5v-1036z" />
<glyph unicode="&#xd5;" horiz-adv-x="751" d="M49 1831q40 73 87.5 104t111.5 31q66 0 134.5 -32.5t117.5 -32.5q38 0 64 16t48 61l88 -69q-21 -64 -75.5 -102t-114.5 -38q-50 0 -94 17.5t-80.5 35t-67.5 17.5q-42 0 -74.5 -18t-64.5 -66zM63 283v1036q0 142 90 226.5t222 84.5q135 0 223 -83.5t88 -227.5v-1036 q0 -136 -89.5 -224t-221.5 -88q-130 0 -221 87.5t-91 224.5zM244 283q0 -61 37 -96t94 -35q56 0 93.5 35t37.5 96v1036q0 60 -37.5 95.5t-93.5 35.5q-57 0 -94 -35.5t-37 -95.5v-1036z" />
<glyph unicode="&#xd6;" horiz-adv-x="751" d="M63 283v1036q0 142 90 226.5t222 84.5q135 0 223 -83.5t88 -227.5v-1036q0 -136 -89.5 -224t-221.5 -88q-130 0 -221 87.5t-91 224.5zM131 1911q0 44 27.5 77t66.5 33q40 0 66 -32.5t26 -77.5q-2 -49 -27 -81t-65 -32q-39 0 -66.5 33.5t-27.5 79.5zM244 283q0 -61 37 -96 t94 -35q56 0 93.5 35t37.5 96v1036q0 60 -37.5 95.5t-93.5 35.5q-57 0 -94 -35.5t-37 -95.5v-1036zM432 1911q0 44 27.5 77t66.5 33q40 0 66 -32.5t26 -77.5q-2 -49 -27 -81t-65 -32q-39 0 -66.5 33.5t-27.5 79.5z" />
<glyph unicode="&#xd7;" horiz-adv-x="757" d="M55 547l209 207l-209 204l119 121l209 -200l192 200l125 -121l-194 -204l194 -207l-125 -123l-192 209l-209 -209z" />
<glyph unicode="&#xd8;" horiz-adv-x="835" d="M55 -29l72 203q-18 59 -18 109v1036q0 128 92.5 219.5t220.5 91.5q108 0 186 -63l23 63h147l-69 -190q26 -56 26 -121v-1036q0 -129 -92.5 -220.5t-220.5 -91.5q-106 0 -193 66l-22 -66h-152zM289 627l252 749q-14 33 -47 53.5t-72 20.5q-54 0 -93.5 -38.5t-39.5 -92.5 v-692zM299 227q18 -35 52 -55t71 -20q56 0 94.5 38t38.5 93v700z" />
<glyph unicode="&#xd9;" horiz-adv-x="757" d="M66 283v1321h180v-1321q0 -66 36 -98.5t95 -32.5q58 0 94.5 32.5t36.5 98.5v1321h180v-1321q0 -140 -89 -226t-222 -86q-131 0 -221 86.5t-90 225.5zM137 2021h170l191 -323h-111z" />
<glyph unicode="&#xda;" horiz-adv-x="757" d="M66 283v1321h180v-1321q0 -66 36 -98.5t95 -32.5q58 0 94.5 32.5t36.5 98.5v1321h180v-1321q0 -140 -89 -226t-222 -86q-131 0 -221 86.5t-90 225.5zM258 1698l191 323h169l-247 -323h-113z" />
<glyph unicode="&#xdb;" horiz-adv-x="757" d="M66 283v1321h180v-1321q0 -66 36 -98.5t95 -32.5q58 0 94.5 32.5t36.5 98.5v1321h180v-1321q0 -140 -89 -226t-222 -86q-131 0 -221 86.5t-90 225.5zM72 1698l223 323h162l227 -323h-172l-135 219l-135 -219h-170z" />
<glyph unicode="&#xdc;" horiz-adv-x="757" d="M66 283v1321h180v-1321q0 -66 36 -98.5t95 -32.5q58 0 94.5 32.5t36.5 98.5v1321h180v-1321q0 -140 -89 -226t-222 -86q-131 0 -221 86.5t-90 225.5zM135 1911q0 44 27.5 77t66.5 33q40 0 66.5 -32.5t26.5 -77.5q-2 -48 -27.5 -80.5t-65.5 -32.5q-39 0 -66.5 33.5 t-27.5 79.5zM436 1911q0 44 27.5 77t66.5 33q40 0 66.5 -32.5t26.5 -77.5q-2 -48 -27.5 -80.5t-65.5 -32.5q-39 0 -66.5 33.5t-27.5 79.5z" />
<glyph unicode="&#xdd;" horiz-adv-x="757" d="M20 1604h205l150 -576l149 576h195l-258 -846v-758h-182v750zM258 1698l191 323h169l-247 -323h-113z" />
<glyph unicode="&#xde;" horiz-adv-x="722" d="M68 0v1604h178v-326h143q119 0 210 -100t91 -222v-292q0 -119 -91.5 -221.5t-209.5 -102.5h-141v-340h-180zM248 520h106q62 0 109 52t47 122v232q0 75 -42 123.5t-114 48.5h-106v-578z" />
<glyph unicode="&#xdf;" horiz-adv-x="751" d="M66 0v1319q0 129 91.5 220t219.5 91q130 0 220.5 -91t90.5 -220v-299q0 -74 -33.5 -141t-83.5 -74q51 0 84 -60t33 -141v-291q0 -132 -90 -222.5t-221 -90.5v180q54 0 92.5 39t38.5 94v256q0 89 -28 117.5t-103 28.5v180q75 0 103 25.5t28 107.5v291q0 54 -38.5 92.5 t-92.5 38.5q-55 0 -93 -38.5t-38 -92.5v-1319h-180z" />
<glyph unicode="&#xe0;" d="M49 299q0 87 25 162.5t62.5 126.5t89 99t97.5 80t96 69.5t77 66.5v62q0 61 -26.5 97t-80.5 36q-105 0 -133 -84l-152 98q47 75 110.5 115.5t176.5 40.5q129 0 207 -81t78 -222v-965h-119l-41 72q-59 -101 -194 -101q-52 0 -99 19t-87 57t-63.5 103t-23.5 149zM150 1669 h169l191 -323h-111zM225 315q0 -78 34.5 -120.5t100.5 -42.5q68 0 104 47t36 116v355q-35 -22 -53 -34t-57 -41.5t-62.5 -55.5t-50 -62t-39.5 -77t-13 -85z" />
<glyph unicode="&#xe1;" d="M49 299q0 87 25 162.5t62.5 126.5t89 99t97.5 80t96 69.5t77 66.5v62q0 61 -26.5 97t-80.5 36q-105 0 -133 -84l-152 98q47 75 110.5 115.5t176.5 40.5q129 0 207 -81t78 -222v-965h-119l-41 72q-59 -101 -194 -101q-52 0 -99 19t-87 57t-63.5 103t-23.5 149zM225 315 q0 -78 34.5 -120.5t100.5 -42.5q68 0 104 47t36 116v355q-35 -22 -53 -34t-57 -41.5t-62.5 -55.5t-50 -62t-39.5 -77t-13 -85zM270 1346l191 323h170l-248 -323h-113z" />
<glyph unicode="&#xe2;" d="M49 299q0 87 25 162.5t62.5 126.5t89 99t97.5 80t96 69.5t77 66.5v62q0 61 -26.5 97t-80.5 36q-105 0 -133 -84l-152 98q47 75 110.5 115.5t176.5 40.5q129 0 207 -81t78 -222v-965h-119l-41 72q-59 -101 -194 -101q-52 0 -99 19t-87 57t-63.5 103t-23.5 149zM84 1346 l223 323h162l227 -323h-172l-135 219l-135 -219h-170zM225 315q0 -78 34.5 -120.5t100.5 -42.5q68 0 104 47t36 116v355q-35 -22 -53 -34t-57 -41.5t-62.5 -55.5t-50 -62t-39.5 -77t-13 -85z" />
<glyph unicode="&#xe3;" d="M49 299q0 87 25 162.5t62.5 126.5t89 99t97.5 80t96 69.5t77 66.5v62q0 61 -26.5 97t-80.5 36q-105 0 -133 -84l-152 98q47 75 110.5 115.5t176.5 40.5q129 0 207 -81t78 -222v-965h-119l-41 72q-59 -101 -194 -101q-52 0 -99 19t-87 57t-63.5 103t-23.5 149zM66 1479 q40 73 87.5 104t110.5 31q66 0 134.5 -33t117.5 -33q38 0 64.5 16.5t48.5 61.5l88 -70q-21 -63 -76 -101t-115 -38q-50 0 -93.5 17.5t-80 35t-67.5 17.5q-42 0 -75 -18t-65 -66zM225 315q0 -78 34.5 -120.5t100.5 -42.5q68 0 104 47t36 116v355q-35 -22 -53 -34t-57 -41.5 t-62.5 -55.5t-50 -62t-39.5 -77t-13 -85z" />
<glyph unicode="&#xe4;" d="M49 299q0 87 25 162.5t62.5 126.5t89 99t97.5 80t96 69.5t77 66.5v62q0 61 -26.5 97t-80.5 36q-105 0 -133 -84l-152 98q47 75 110.5 115.5t176.5 40.5q129 0 207 -81t78 -222v-965h-119l-41 72q-59 -101 -194 -101q-52 0 -99 19t-87 57t-63.5 103t-23.5 149zM147 1559 q0 44 28 77t67 33q40 0 66 -32.5t26 -77.5q-2 -49 -27 -81t-65 -32q-39 0 -67 33.5t-28 79.5zM225 315q0 -78 34.5 -120.5t100.5 -42.5q68 0 104 47t36 116v355q-35 -22 -53 -34t-57 -41.5t-62.5 -55.5t-50 -62t-39.5 -77t-13 -85zM449 1559q0 44 27.5 77t66.5 33 q40 0 66 -32.5t26 -77.5q-2 -49 -27 -81t-65 -32q-39 0 -66.5 33.5t-27.5 79.5z" />
<glyph unicode="&#xe5;" d="M49 299q0 87 25 162.5t62.5 126.5t89 99t97.5 80t96 69.5t77 66.5v62q0 61 -26.5 97t-80.5 36q-105 0 -133 -84l-152 98q47 75 110.5 115.5t176.5 40.5q129 0 207 -81t78 -222v-965h-119l-41 72q-59 -101 -194 -101q-52 0 -99 19t-87 57t-63.5 103t-23.5 149zM225 315 q0 -78 34.5 -120.5t100.5 -42.5q68 0 104 47t36 116v355q-35 -22 -53 -34t-57 -41.5t-62.5 -55.5t-50 -62t-39.5 -77t-13 -85zM233 1509q0 70 44.5 115t111.5 45q68 0 113 -45t45 -115t-45 -116.5t-113 -46.5q-66 0 -111 46.5t-45 116.5zM305 1509q0 -39 24 -64.5t60 -25.5 q37 0 61.5 25.5t24.5 64.5q0 37 -24.5 61.5t-61.5 24.5q-35 0 -59.5 -24.5t-24.5 -61.5z" />
<glyph unicode="&#xe6;" horiz-adv-x="1202" d="M66 276q0 111 33 200.5t88 150.5t110.5 105t119 90.5t93.5 80.5v74q-11 121 -107 121q-102 0 -129 -90l-153 104q33 67 108.5 116.5t173.5 49.5q125 0 203 -88q91 88 217 88q132 0 223 -92.5t91 -245.5q0 -99 -17.5 -174t-48 -131.5t-89.5 -107.5t-123.5 -90.5 t-168.5 -92.5v-72q6 -54 40 -87t87 -33t89 38t36 93v20l180 59v-79q0 -129 -89.5 -220.5t-215.5 -91.5q-151 0 -246 123q-79 -110 -229 -110q-107 0 -191.5 80.5t-84.5 211.5zM246 297q0 -56 38 -94.5t93 -38.5q53 0 93 47t40 104v355q-2 -2 -30 -22t-35 -25.5t-33.5 -26.5 t-36.5 -31.5t-32.5 -33t-32 -38.5t-25 -41t-22 -47.5t-12 -50.5t-5.5 -57zM690 551q157 85 211.5 166t54.5 213q0 88 -37 128t-96 40q-53 0 -90 -34.5t-43 -86.5v-426z" />
<glyph unicode="&#xe7;" horiz-adv-x="739" d="M61 283v682q0 158 84.5 230.5t227.5 72.5q138 0 224.5 -74t86.5 -229v-54h-180v54q0 63 -37 98t-94 35q-58 0 -94.5 -34.5t-36.5 -98.5v-682q0 -61 37 -96t94 -35t94 34.5t37 96.5v20l180 59v-79q0 -151 -88 -231.5t-223 -80.5q-137 0 -224.5 83t-87.5 229zM299 -350 l10 215q1 44 20.5 66t45.5 22q31 0 53.5 -17.5t22.5 -54.5q0 -42 -19 -88l-57 -143h-76z" />
<glyph unicode="&#xe8;" d="M61 283v682q0 143 87.5 223t224.5 80q133 0 222 -87.5t89 -240.5q0 -84 -10.5 -149.5t-36 -120t-57 -95t-86.5 -81.5t-110 -73t-142 -77v-61q0 -62 33.5 -96.5t91.5 -34.5q55 0 88.5 34.5t33.5 96.5v20l183 59v-79q0 -144 -86 -228t-219 -84q-134 0 -220 84t-86 228z M129 1669h170l190 -323h-110zM242 543q157 74 209.5 156t52.5 231q0 88 -36 128t-95 40q-58 0 -94.5 -34.5t-36.5 -98.5v-422z" />
<glyph unicode="&#xe9;" d="M61 283v682q0 143 87.5 223t224.5 80q133 0 222 -87.5t89 -240.5q0 -84 -10.5 -149.5t-36 -120t-57 -95t-86.5 -81.5t-110 -73t-142 -77v-61q0 -62 33.5 -96.5t91.5 -34.5q55 0 88.5 34.5t33.5 96.5v20l183 59v-79q0 -144 -86 -228t-219 -84q-134 0 -220 84t-86 228z M242 543q157 74 209.5 156t52.5 231q0 88 -36 128t-95 40q-58 0 -94.5 -34.5t-36.5 -98.5v-422zM250 1346l190 323h170l-248 -323h-112z" />
<glyph unicode="&#xea;" d="M61 283v682q0 143 87.5 223t224.5 80q133 0 222 -87.5t89 -240.5q0 -84 -10.5 -149.5t-36 -120t-57 -95t-86.5 -81.5t-110 -73t-142 -77v-61q0 -62 33.5 -96.5t91.5 -34.5q55 0 88.5 34.5t33.5 96.5v20l183 59v-79q0 -144 -86 -228t-219 -84q-134 0 -220 84t-86 228z M66 1346l223 323h162l227 -323h-172l-135 219l-135 -219h-170zM242 543q157 74 209.5 156t52.5 231q0 88 -36 128t-95 40q-58 0 -94.5 -34.5t-36.5 -98.5v-422z" />
<glyph unicode="&#xeb;" d="M61 283v682q0 143 87.5 223t224.5 80q133 0 222 -87.5t89 -240.5q0 -84 -10.5 -149.5t-36 -120t-57 -95t-86.5 -81.5t-110 -73t-142 -77v-61q0 -62 33.5 -96.5t91.5 -34.5q55 0 88.5 34.5t33.5 96.5v20l183 59v-79q0 -144 -86 -228t-219 -84q-134 0 -220 84t-86 228z M127 1559q0 44 27.5 77t66.5 33q40 0 66 -32.5t26 -77.5q-2 -49 -27 -81t-65 -32q-39 0 -66.5 33.5t-27.5 79.5zM242 543q157 74 209.5 156t52.5 231q0 88 -36 128t-95 40q-58 0 -94.5 -34.5t-36.5 -98.5v-422zM428 1559q0 44 27.5 77t66.5 33q40 0 66 -32.5t26 -77.5 q-2 -49 -27 -81t-65 -32q-39 0 -66.5 33.5t-27.5 79.5z" />
<glyph unicode="&#xec;" horiz-adv-x="380" d="M-20 1669h170l190 -323h-111zM127 0v1251h180v-1251h-180z" />
<glyph unicode="&#xed;" horiz-adv-x="387" d="M41 1346l190 323h170l-247 -323h-113zM68 0v1251h180v-1251h-180z" />
<glyph unicode="&#xee;" horiz-adv-x="481" d="M-74 1346l224 323h161l228 -323h-172l-136 219l-135 -219h-170zM139 0v1251h180v-1251h-180z" />
<glyph unicode="&#xef;" horiz-adv-x="481" d="M-12 1559q0 44 27.5 77t66.5 33q40 0 66 -32.5t26 -77.5q-2 -49 -27 -81t-65 -32q-39 0 -66.5 33.5t-27.5 79.5zM139 0v1251h180v-1251h-180zM289 1559q0 44 27.5 77t66.5 33q40 0 66 -32.5t26 -77.5q-2 -49 -27 -81t-65 -32q-39 0 -66.5 33.5t-27.5 79.5z" />
<glyph unicode="&#xf0;" horiz-adv-x="747" d="M63 283v364q0 153 73.5 233.5t207.5 80.5q46 0 80 -10t49.5 -20.5t32.5 -27.5v406l-305 -289v158l256 243q-37 29 -82 29t-80 -27l-125 140q80 67 205 67q134 0 219 -78l117 109v-158l-49 -47q24 -74 24 -137v-1036q0 -144 -88 -228t-223 -84q-132 0 -222 84.5t-90 227.5 zM244 283q0 -61 37.5 -96t93.5 -35q58 0 94.5 33.5t36.5 97.5v354q0 71 -34 107t-97 36q-57 0 -94 -34t-37 -99v-364z" />
<glyph unicode="&#xf1;" horiz-adv-x="778" d="M63 1479q40 73 87.5 104t111.5 31q66 0 134.5 -33t117.5 -33q38 0 64.5 16.5t48.5 61.5l88 -70q-21 -63 -76 -101t-115 -38q-50 0 -93.5 17.5t-80 35t-67.5 17.5q-42 0 -75 -18t-65 -66zM68 0v1251h118l41 -59q69 76 197 76t207.5 -82t79.5 -215v-971h-181v965 q0 63 -41 98t-100 35q-58 0 -99.5 -35t-41.5 -98v-965h-180z" />
<glyph unicode="&#xf2;" horiz-adv-x="747" d="M61 283v682q0 138 88.5 220.5t223.5 82.5q132 0 221.5 -83t89.5 -220v-682q0 -141 -89.5 -226.5t-221.5 -85.5q-135 0 -223.5 85t-88.5 227zM133 1669h170l191 -323h-111zM242 283q0 -61 37 -96t94 -35q56 0 93.5 35t37.5 96v682q0 63 -37 98t-94 35q-58 0 -94.5 -34.5 t-36.5 -98.5v-682z" />
<glyph unicode="&#xf3;" horiz-adv-x="747" d="M61 283v682q0 138 88.5 220.5t223.5 82.5q132 0 221.5 -83t89.5 -220v-682q0 -141 -89.5 -226.5t-221.5 -85.5q-135 0 -223.5 85t-88.5 227zM242 283q0 -61 37 -96t94 -35q56 0 93.5 35t37.5 96v682q0 63 -37 98t-94 35q-58 0 -94.5 -34.5t-36.5 -98.5v-682zM254 1346 l190 323h170l-247 -323h-113z" />
<glyph unicode="&#xf4;" horiz-adv-x="747" d="M61 283v682q0 138 88.5 220.5t223.5 82.5q132 0 221.5 -83t89.5 -220v-682q0 -141 -89.5 -226.5t-221.5 -85.5q-135 0 -223.5 85t-88.5 227zM70 1346l223 323h162l227 -323h-172l-135 219l-135 -219h-170zM242 283q0 -61 37 -96t94 -35q56 0 93.5 35t37.5 96v682 q0 63 -37 98t-94 35q-58 0 -94.5 -34.5t-36.5 -98.5v-682z" />
<glyph unicode="&#xf5;" horiz-adv-x="747" d="M47 1479q40 73 87.5 104t111.5 31q66 0 134.5 -33t117.5 -33q38 0 64 16.5t48 61.5l88 -70q-21 -63 -75.5 -101t-114.5 -38q-50 0 -94 17.5t-80.5 35t-67.5 17.5q-42 0 -74.5 -18t-64.5 -66zM61 283v682q0 138 88.5 220.5t223.5 82.5q132 0 221.5 -83t89.5 -220v-682 q0 -141 -89.5 -226.5t-221.5 -85.5q-135 0 -223.5 85t-88.5 227zM242 283q0 -61 37 -96t94 -35q56 0 93.5 35t37.5 96v682q0 63 -37 98t-94 35q-58 0 -94.5 -34.5t-36.5 -98.5v-682z" />
<glyph unicode="&#xf6;" horiz-adv-x="747" d="M61 283v682q0 138 88.5 220.5t223.5 82.5q132 0 221.5 -83t89.5 -220v-682q0 -141 -89.5 -226.5t-221.5 -85.5q-135 0 -223.5 85t-88.5 227zM129 1559q0 44 27.5 77t66.5 33q40 0 66 -32.5t26 -77.5q-2 -49 -27 -81t-65 -32q-39 0 -66.5 33.5t-27.5 79.5zM242 283 q0 -61 37 -96t94 -35q56 0 93.5 35t37.5 96v682q0 63 -37 98t-94 35q-58 0 -94.5 -34.5t-36.5 -98.5v-682zM430 1559q0 44 27.5 77t66.5 33q40 0 66 -32.5t26 -77.5q-2 -49 -27 -81t-65 -32q-39 0 -66.5 33.5t-27.5 79.5z" />
<glyph unicode="&#xf7;" horiz-adv-x="727" d="M70 678v151h587v-151h-587zM274 367q0 49 24 84.5t67 35.5t66.5 -34t23.5 -86q0 -50 -24 -84.5t-66 -34.5q-43 0 -67 36t-24 83zM274 1120q0 50 24 85.5t67 35.5t66.5 -34.5t23.5 -86.5q0 -50 -24 -84.5t-66 -34.5q-43 0 -67 36t-24 83z" />
<glyph unicode="&#xf8;" horiz-adv-x="835" d="M53 -25l82 177q-29 73 -29 131v682q0 129 93 221t221 92q106 0 186 -59l49 100h123l-90 -193q47 -71 47 -161v-682q0 -128 -93.5 -220t-221.5 -92q-119 0 -205 74l-33 -70h-129zM287 479l237 565q-54 54 -104 54q-54 0 -93.5 -39t-39.5 -94v-486zM299 225q49 -73 121 -73 q56 0 95.5 38t39.5 93v548z" />
<glyph unicode="&#xf9;" horiz-adv-x="749" d="M66 303v948h180v-968q0 -62 35 -96.5t92 -34.5t92 33t35 98v968h180v-1251h-119l-41 59q-63 -88 -190 -88q-123 0 -193.5 87t-70.5 245zM133 1669h170l191 -323h-111z" />
<glyph unicode="&#xfa;" horiz-adv-x="749" d="M66 303v948h180v-968q0 -62 35 -96.5t92 -34.5t92 33t35 98v968h180v-1251h-119l-41 59q-63 -88 -190 -88q-123 0 -193.5 87t-70.5 245zM254 1346l190 323h170l-247 -323h-113z" />
<glyph unicode="&#xfb;" horiz-adv-x="749" d="M66 303v948h180v-968q0 -62 35 -96.5t92 -34.5t92 33t35 98v968h180v-1251h-119l-41 59q-63 -88 -190 -88q-123 0 -193.5 87t-70.5 245zM70 1346l223 323h162l227 -323h-172l-135 219l-135 -219h-170z" />
<glyph unicode="&#xfc;" horiz-adv-x="749" d="M66 303v948h180v-968q0 -62 35 -96.5t92 -34.5t92 33t35 98v968h180v-1251h-119l-41 59q-63 -88 -190 -88q-123 0 -193.5 87t-70.5 245zM131 1559q0 44 27.5 77t66.5 33q40 0 66 -32.5t26 -77.5q-2 -49 -27 -81t-65 -32q-39 0 -66.5 33.5t-27.5 79.5zM432 1559 q0 44 27.5 77t66.5 33q40 0 66 -32.5t26 -77.5q-2 -49 -27 -81t-65 -32q-39 0 -66.5 33.5t-27.5 79.5z" />
<glyph unicode="&#xfd;" horiz-adv-x="739" d="M45 274v977h180v-968q0 -64 36.5 -97.5t96.5 -33.5q56 0 92.5 34t36.5 97v968h183v-1601h-183v389q-39 -68 -163 -68q-54 0 -102 16.5t-88.5 51t-64.5 95t-24 140.5zM244 1346l190 323h170l-248 -323h-112z" />
<glyph unicode="&#xfe;" horiz-adv-x="763" d="M61 -350v1960l181 59v-452q55 51 184 51q118 0 197 -81.5t79 -221.5v-682q0 -140 -84.5 -226t-203.5 -86t-172 70v-391h-181zM242 283q0 -58 42.5 -94.5t100.5 -36.5t97.5 36t39.5 95v682q0 62 -41 97.5t-100 35.5q-58 0 -98.5 -35.5t-40.5 -97.5v-682z" />
<glyph unicode="&#xff;" horiz-adv-x="739" d="M45 274v977h180v-968q0 -64 36.5 -97.5t96.5 -33.5q56 0 92.5 34t36.5 97v968h183v-1601h-183v389q-39 -68 -163 -68q-54 0 -102 16.5t-88.5 51t-64.5 95t-24 140.5zM125 1559q0 44 27.5 77t66.5 33q40 0 66 -32.5t26 -77.5q-2 -49 -27 -81t-65 -32q-39 0 -66.5 33.5 t-27.5 79.5zM426 1559q0 44 27.5 77t66.5 33q40 0 66 -32.5t26 -77.5q-2 -49 -27 -81t-65 -32q-39 0 -66.5 33.5t-27.5 79.5z" />
<glyph unicode="&#x152;" horiz-adv-x="1060" d="M66 283v1036q0 129 91.5 220t219.5 91q80 0 133 -26h498v-181h-318v-528h205v-180h-205v-535h318v-180h-492q-76 -29 -139 -29q-128 0 -219.5 91.5t-91.5 220.5zM246 283q0 -55 38.5 -93t92.5 -38t91 33.5t42 86.5v1057q-3 46 -39 82q-36 39 -94 39q-54 0 -92.5 -38.5 t-38.5 -92.5v-1036z" />
<glyph unicode="&#x153;" horiz-adv-x="1191" d="M63 283v682q0 129 92 221t220 92q133 0 221 -94q94 94 223 94q133 0 222 -92t89 -246q0 -99 -17 -174t-47.5 -131.5t-88.5 -107.5t-122.5 -90.5t-168.5 -92.5v-72q5 -53 39 -86.5t86 -33.5q54 0 90.5 37.5t36.5 93.5v20l180 59v-79q0 -129 -90 -220.5t-217 -91.5t-217 90 q-93 -90 -219 -90q-128 0 -220 91.5t-92 220.5zM244 283q0 -55 38 -93t93 -38q54 0 92.5 38t38.5 93v694q-5 51 -42.5 86t-88.5 35q-55 0 -93 -38.5t-38 -94.5v-682zM686 551q156 85 210 166t54 213q0 88 -36.5 128t-94.5 40q-53 0 -90.5 -34.5t-42.5 -86.5v-426z" />
<glyph unicode="&#x178;" horiz-adv-x="757" d="M20 1604h205l150 -576l149 576h195l-258 -846v-758h-182v750zM135 1911q0 44 27.5 77t66.5 33q40 0 66.5 -32.5t26.5 -77.5q-2 -48 -27.5 -80.5t-65.5 -32.5q-39 0 -66.5 33.5t-27.5 79.5zM436 1911q0 44 27.5 77t66.5 33q40 0 66.5 -32.5t26.5 -77.5q-2 -48 -27.5 -80.5 t-65.5 -32.5q-39 0 -66.5 33.5t-27.5 79.5z" />
<glyph unicode="&#x2c6;" horiz-adv-x="854" d="M121 1346l223 323h162l227 -323h-172l-135 219l-135 -219h-170z" />
<glyph unicode="&#x2dc;" horiz-adv-x="819" d="M90 1479q40 73 87.5 104t111.5 31q66 0 134.5 -33t117.5 -33q38 0 64 16.5t48 61.5l88 -70q-21 -63 -75.5 -101t-114.5 -38q-50 0 -94 17.5t-80.5 35t-67.5 17.5q-42 0 -74.5 -18t-64.5 -66z" />
<glyph unicode="&#x2000;" horiz-adv-x="1010" />
<glyph unicode="&#x2001;" horiz-adv-x="2021" />
<glyph unicode="&#x2002;" horiz-adv-x="1010" />
<glyph unicode="&#x2003;" horiz-adv-x="2021" />
<glyph unicode="&#x2004;" horiz-adv-x="673" />
<glyph unicode="&#x2005;" horiz-adv-x="505" />
<glyph unicode="&#x2006;" horiz-adv-x="336" />
<glyph unicode="&#x2007;" horiz-adv-x="336" />
<glyph unicode="&#x2008;" horiz-adv-x="252" />
<glyph unicode="&#x2009;" horiz-adv-x="404" />
<glyph unicode="&#x200a;" horiz-adv-x="112" />
<glyph unicode="&#x2010;" horiz-adv-x="655" d="M68 725v158h516v-158h-516z" />
<glyph unicode="&#x2011;" horiz-adv-x="655" d="M68 725v158h516v-158h-516z" />
<glyph unicode="&#x2012;" horiz-adv-x="655" d="M68 725v158h516v-158h-516z" />
<glyph unicode="&#x2013;" horiz-adv-x="897" d="M68 725v158h761v-158h-761z" />
<glyph unicode="&#x2014;" horiz-adv-x="1343" d="M68 725v158h1208v-158h-1208z" />
<glyph unicode="&#x2018;" horiz-adv-x="286" d="M43 1206q0 32 12 62l135 401h54l-19 -465q-1 -55 -26.5 -83.5t-59.5 -28.5q-38 0 -67 31.5t-29 82.5z" />
<glyph unicode="&#x2019;" horiz-adv-x="286" d="M43 1092l18 464q1 56 26 84.5t60 28.5q37 0 67 -31t30 -82q0 -26 -13 -63l-137 -401h-51z" />
<glyph unicode="&#x201a;" horiz-adv-x="286" d="M37 -350l18 467q1 55 26 83.5t60 28.5q37 0 67 -31.5t30 -82.5q0 -27 -13 -64l-137 -401h-51z" />
<glyph unicode="&#x201c;" horiz-adv-x="530" d="M43 1206q0 32 12 62l135 401h54l-19 -465q-1 -55 -26.5 -83.5t-59.5 -28.5q-38 0 -67 31.5t-29 82.5zM289 1206q0 32 12 62l135 401h53l-18 -465q-1 -55 -26.5 -83.5t-59.5 -28.5q-38 0 -67 31.5t-29 82.5z" />
<glyph unicode="&#x201d;" horiz-adv-x="530" d="M43 1092l18 464q1 56 26 84.5t60 28.5q37 0 67 -31t30 -82q0 -26 -13 -63l-137 -401h-51zM289 1092l18 464q1 56 26 84.5t60 28.5q37 0 66.5 -31t29.5 -82q0 -28 -12 -63l-137 -401h-51z" />
<glyph unicode="&#x201e;" horiz-adv-x="530" d="M37 -350l18 467q1 55 26 83.5t60 28.5q37 0 67 -31.5t30 -82.5q0 -27 -13 -64l-137 -401h-51zM283 -350l18 467q1 55 26 83.5t60 28.5q37 0 66.5 -31.5t29.5 -82.5q0 -29 -12 -64l-137 -401h-51z" />
<glyph unicode="&#x2022;" horiz-adv-x="636" d="M53 711q0 111 76 188.5t188 77.5q109 0 187 -78t78 -188q0 -109 -78 -187t-187 -78q-112 0 -188 77.5t-76 187.5z" />
<glyph unicode="&#x2026;" horiz-adv-x="1327" d="M84 106q0 50 23.5 85.5t66.5 35.5t66.5 -34.5t23.5 -86.5q0 -50 -24 -84t-66 -34q-43 0 -66.5 35.5t-23.5 82.5zM582 106q0 50 23.5 85.5t66.5 35.5t66.5 -34.5t23.5 -86.5q0 -50 -24 -84t-66 -34q-43 0 -66.5 35.5t-23.5 82.5zM1079 106q0 50 23.5 85.5t66.5 35.5 t67 -34.5t24 -86.5q0 -50 -24.5 -84t-66.5 -34q-43 0 -66.5 35.5t-23.5 82.5z" />
<glyph unicode="&#x202f;" horiz-adv-x="404" />
<glyph unicode="&#x2039;" horiz-adv-x="389" d="M70 784v134l247 260v-199l-147 -125l147 -127v-192z" />
<glyph unicode="&#x203a;" horiz-adv-x="389" d="M70 535v192l147 127l-147 125v199l247 -260v-134z" />
<glyph unicode="&#x205f;" horiz-adv-x="505" />
<glyph unicode="&#x20ac;" horiz-adv-x="702" d="M43 610l14 109h93v125h-107l14 104h93v371q0 129 92 220t221 91q86 0 145 -39l-28 -219q-15 35 -47.5 56.5t-69.5 21.5q-57 0 -95 -38t-38 -93v-371h196l-12 -104h-184v-125h168l-15 -109h-153v-327q0 -56 38 -93.5t95 -37.5q59 0 98 45l94 -158q-86 -68 -192 -68 q-129 0 -221 91.5t-92 220.5v327h-107z" />
<glyph unicode="&#x2122;" horiz-adv-x="1249" d="M72 1397v137h407v-137h-133v-703h-137v703h-137zM567 694v840h193l114 -557l115 557h189v-840h-129v553l-105 -553h-141l-107 557v-557h-129z" />
<glyph unicode="&#xe000;" horiz-adv-x="1249" d="M0 0v1249h1249v-1249h-1249z" />
<glyph unicode="&#xfb01;" horiz-adv-x="909" d="M45 1092v159h80v107q0 144 90 227.5t223 83.5q72 0 144 -29l-72 -174q-30 23 -72 23q-58 0 -95.5 -34.5t-37.5 -96.5v-107h133v-159h-133v-1092h-180v1092h-80zM664 0v1251h180v-1251h-180zM664 1559q0 44 27 77t67 33q39 0 65.5 -32.5t26.5 -77.5q-2 -48 -27.5 -80.5 t-64.5 -32.5q-41 0 -67.5 33t-26.5 80z" />
<glyph unicode="&#xfb02;" horiz-adv-x="921" d="M45 1092v159h80v107q0 144 90 227.5t223 83.5q72 0 144 -29l-72 -174q-30 23 -72 23q-58 0 -95.5 -34.5t-37.5 -96.5v-107h133v-159h-133v-1092h-180v1092h-80zM670 0v1610l180 59v-1669h-180z" />
</font>
</defs>
</svg>
