<?xml version="1.0" standalone="no"?>
<!DOCTYPE svg PUBLIC "-//W3C//DTD SVG 1.1//EN" "http://www.w3.org/Graphics/SVG/1.1/DTD/svg11.dtd" >
<svg>
<metadata>
Created by FontForge 20110222 at Mon Apr  4 13:20:46 2011
 By www-data
Copyright (c) 2011 by EdgarTolentino, PabloImpallari, IginoMarini. All rights reserved.
</metadata>
<defs>
<font id="TerminalDosis-Light" horiz-adv-x="531" >
  <font-face 
    font-family="Terminal Dosis"
    font-weight="300"
    font-stretch="normal"
    units-per-em="1000"
    panose-1="2 1 2 3 2 2 2 6 0 3"
    ascent="800"
    descent="-200"
    x-height="472"
    cap-height="731"
    bbox="-77 -237 1073 1027"
    underline-thickness="26"
    underline-position="-25"
    unicode-range="U+0020-2122"
  />
    <missing-glyph />
    <glyph glyph-name="space" unicode=" " horiz-adv-x="205" 
 />
    <glyph glyph-name="exclam" unicode="!" horiz-adv-x="190" 
d="M120 713l-18 -549q0 -17 -8 -17q-7 0 -7 17l-18 549q0 13 6.5 24t20.5 11q24 0 24 -35zM95 -6q-17 0 -30 13t-13 30t13 30t30 13q18 0 31 -13t13 -30t-13 -30t-31 -13z" />
    <glyph glyph-name="quotedbl" unicode="&#x22;" horiz-adv-x="253" 
d="M66 731q8 0 16.5 -5t8.5 -12l-10 -152q0 -18 -15 -18q-14 0 -14 18l-10 152q0 7 8 12t16 5zM186 731q8 0 16.5 -5t8.5 -12l-10 -152q0 -18 -15 -18q-14 0 -14 18l-10 152q0 7 8 12t16 5z" />
    <glyph glyph-name="numbersign" unicode="#" horiz-adv-x="546" 
d="M322 51q-3 -15 -17 -15q-16 0 -16 19l32 213h-134l-32 -216q-3 -16 -15 -16q-17 0 -17 19l31 213h-104q-18 0 -18 15t12 15h116l26 177h-105q-18 0 -18 16q0 14 12 14h116l30 198q2 10 12 10q19 0 19 -20l-29 -188h135l30 198q0 10 12 10q9 0 14 -6t5 -14l-29 -188h107
q19 0 19 -15q0 -5 -4 -10t-9 -5h-117l-27 -177h107q19 0 19 -16q0 -5 -4 -9.5t-9 -4.5h-118zM219 475l-27 -177h134l27 177h-134z" />
    <glyph glyph-name="dollar" unicode="$" horiz-adv-x="479" 
d="M246 -52q-7 0 -12.5 5t-5.5 12v42q-79 0 -132.5 48.5t-53.5 118.5q0 36 20 36t20 -25q0 -64 39 -103t107 -39v310q-77 35 -121.5 81t-44.5 124q0 65 45.5 111.5t120.5 46.5v35q0 7 5.5 12t12.5 5t12.5 -5t5.5 -12v-35q82 0 115.5 -46.5t32.5 -108.5q0 -39 -15 -39
q-12 0 -16.5 25.5t-8 56t-30.5 56t-78 25.5v-310q40 -19 63 -32.5t51.5 -37t41.5 -56t13 -74.5q0 -79 -48.5 -123.5t-120.5 -44.5v-42q0 -7 -5.5 -12t-12.5 -5zM400 179q0 54 -35 88t-101 67v-291q60 0 98 38.5t38 97.5zM97 554q0 -60 34 -95.5t97 -66.5v293
q-60 0 -95.5 -37t-35.5 -94z" />
    <glyph glyph-name="percent" unicode="%" horiz-adv-x="759" 
d="M237 -20q-7 0 -12.5 5t-5.5 12q0 4 1 6l275 754q3 11 16 11q8 0 13.5 -5t5.5 -12q0 -5 -3 -11l-273 -749q-3 -11 -17 -11zM570 373q71 0 111.5 -44.5t40.5 -119.5v-45q0 -73 -41 -119.5t-111 -46.5t-110.5 46t-40.5 120v45q0 74 40 119t111 45zM687 164v45
q0 58 -29.5 93.5t-87.5 35.5q-57 0 -86.5 -35.5t-29.5 -93.5v-44q0 -59 29.5 -95.5t87.5 -36.5q56 0 86 36t30 95zM189 731q71 0 111.5 -44.5t40.5 -119.5v-45q0 -73 -41 -119.5t-111 -46.5t-110.5 46t-40.5 120v45q0 74 40 119t111 45zM306 522v45q0 58 -29.5 93.5
t-87.5 35.5q-57 0 -86.5 -35.5t-29.5 -93.5v-44q0 -59 29.5 -95.5t87.5 -36.5q56 0 86 36t30 95z" />
    <glyph glyph-name="ampersand" unicode="&#x26;" horiz-adv-x="603" 
d="M262 748q63 0 105.5 -32t42.5 -55q0 -8 -5.5 -13t-13.5 -5q-7 0 -16 11.5t-18.5 25t-33.5 25t-57 11.5q-60 0 -94.5 -37t-34.5 -99q0 -50 22.5 -90t66.5 -89l223 -247q31 74 39 205q2 25 17 25t15 -27q0 -134 -47 -230l116 -127h-42l-90 97q-68 -107 -198 -107
q-102 0 -160.5 60.5t-58.5 148.5q0 74 40.5 123.5t100.5 74.5q-27 32 -42 53t-29.5 58t-14.5 75q0 77 48 121t119 44zM265 25q113 0 168 97l-231 249q-26 -14 -42 -24.5t-38 -31.5t-33.5 -49t-11.5 -63q0 -74 50.5 -126t137.5 -52z" />
    <glyph glyph-name="quotesingle" unicode="'" horiz-adv-x="133" 
d="M66 731q8 0 16.5 -5t8.5 -12l-10 -152q0 -18 -15 -18q-14 0 -14 18l-10 152q0 7 8 12t16 5z" />
    <glyph glyph-name="parenleft" unicode="(" horiz-adv-x="263" 
d="M234 -20q-79 0 -126.5 43.5t-47.5 119.5v448q0 71 49.5 124t124.5 53q7 0 12 -5t5 -12t-5 -12.5t-12 -5.5q-63 0 -100.5 -43t-37.5 -99v-448q0 -71 40.5 -99.5t97.5 -28.5q17 0 17 -17q0 -8 -5.5 -13t-11.5 -5z" />
    <glyph glyph-name="parenright" unicode=")" horiz-adv-x="263" 
d="M29 -20q-6 0 -11.5 5t-5.5 13q0 17 17 17q57 0 97.5 28.5t40.5 99.5v448q0 56 -37.5 99t-100.5 43q-7 0 -12 5.5t-5 12.5t5 12t12 5q75 0 124.5 -53t49.5 -124v-448q0 -76 -47.5 -119.5t-126.5 -43.5z" />
    <glyph glyph-name="asterisk" unicode="*" horiz-adv-x="414" 
d="M231 547l85 -112q3 -5 3 -9q0 -8 -6 -13.5t-14 -5.5q-7 0 -13 7l-79 115l-80 -116q-5 -6 -11 -6q-7 0 -14 5t-7 13q0 6 4 11l84 110l-134 40q-11 3 -11 16q0 8 5 14t13 6q3 0 5 -1l133 -47l-5 140q0 17 18 17t18 -17l-5 -141l134 48l2 1h3q7 0 12 -6.5t5 -13.5
q0 -13 -12 -16z" />
    <glyph glyph-name="plus" unicode="+" horiz-adv-x="427" 
d="M214 63q-18 0 -18 17v143h-143q-17 0 -17 17q0 18 17 18h143v142q0 7 5.5 12.5t12.5 5.5t12 -5.5t5 -12.5v-142h142q7 0 12.5 -5.5t5.5 -12.5t-5.5 -12t-12.5 -5h-142v-143q0 -17 -17 -17z" />
    <glyph glyph-name="comma" unicode="," horiz-adv-x="176" 
d="M88 80q17 0 30 -12t13 -39q0 -31 -17 -66t-31 -35q-12 0 -12 16q0 3 1 5l15 45q-18 1 -30.5 13.5t-12.5 29.5t13 30t31 13z" />
    <glyph glyph-name="hyphen" unicode="-" horiz-adv-x="478" 
d="M62 240q0 18 17 18h320q7 0 12.5 -5.5t5.5 -12.5t-5.5 -12t-12.5 -5h-320q-17 0 -17 17z" />
    <glyph glyph-name="period" unicode="." horiz-adv-x="175" 
d="M88 80q17 0 30 -13t13 -30t-13 -30t-30 -13q-18 0 -31 13t-13 30t13 30t31 13z" />
    <glyph glyph-name="slash" unicode="/" horiz-adv-x="467" 
d="M444 738l-388 -747q-6 -11 -17 -11q-16 0 -16 15q0 6 2 9l391 756q4 8 13 8q6 0 12 -5.5t6 -13.5q0 -5 -3 -11z" />
    <glyph glyph-name="zero" unicode="0" 
d="M265 -6q-89 0 -142 49.5t-53 156.5v325q0 107 53 156.5t142 49.5t142.5 -49.5t53.5 -156.5v-325q0 -107 -53.5 -156.5t-142.5 -49.5zM106 525v-325q0 -48 14 -84l272 526q-40 53 -127 53q-77 0 -118 -42.5t-41 -127.5zM425 200v325q0 43 -13 80l-273 -524q39 -51 126 -51
q77 0 118.5 42.5t41.5 127.5z" />
    <glyph glyph-name="one" unicode="1" horiz-adv-x="259" 
d="M54 586l66 128q9 17 23 17q16 0 16 -17v-696q0 -18 -18 -18t-18 18v621l-43 -80q-6 -13 -18 -13q-7 0 -12.5 5t-5.5 12q0 3 10 23z" />
    <glyph glyph-name="two" unicode="2" horiz-adv-x="467" 
d="M56 563q0 78 48.5 123t129.5 45q80 0 137.5 -56.5t57.5 -135.5q0 -56 -36.5 -107t-88.5 -89.5t-104.5 -73.5t-89 -75t-36.5 -79v-79h338q7 0 12 -5.5t5 -12.5t-5 -12.5t-12 -5.5h-356q-7 0 -12.5 5t-5.5 13v97q0 39 26.5 77t65.5 67l86 63l85 64q39 30 65.5 70t26.5 83
q0 65 -47 110.5t-112 45.5q-66 0 -104 -34t-38 -98q0 -7 -5.5 -12t-12.5 -5t-12.5 5t-5.5 12z" />
    <glyph glyph-name="three" unicode="3" horiz-adv-x="472" 
d="M229 389q-19 0 -19 18t18 18q73 0 107 28t34 95q0 74 -32.5 110.5t-105.5 36.5q-42 0 -71 -11t-41.5 -27.5t-20 -36t-9.5 -36t-7 -27.5t-14 -11q-18 0 -18 20q0 24 7 49t25 53t57 45.5t93 17.5q173 0 173 -172q0 -115 -84 -153q102 -47 102 -187v-19q0 -106 -53.5 -156
t-141.5 -50q-93 0 -144.5 49t-51.5 116q0 20 18 20q10 0 18 -23.5t17.5 -51t45 -51t94.5 -23.5q78 0 120 42.5t42 127.5v19q0 84 -42 127t-116 43z" />
    <glyph glyph-name="four" unicode="4" horiz-adv-x="414" 
d="M289 18v160h-261q-17 0 -17 18q0 8 3 12l257 509q7 14 20 14q7 0 12 -4.5t5 -11.5q0 -5 -3 -11l-248 -490h232v111q0 17 18 17t18 -17v-111h59q18 0 18 -18t-18 -18h-59v-160q0 -18 -18 -18t-18 18z" />
    <glyph glyph-name="five" unicode="5" horiz-adv-x="458" 
d="M103 425h124q89 0 142 -49.5t53 -156.5v-19q0 -107 -53.5 -156.5t-142.5 -49.5q-89 1 -139 47t-56 118q0 20 17 20q18 0 19 -18q17 -131 159 -131q77 0 118.5 42.5t41.5 127.5v19q0 85 -41.5 127.5t-117.5 42.5h-142q-18 0 -18 18l19 306q2 18 18 18h267q15 0 15 -18
t-15 -18h-249z" />
    <glyph glyph-name="six" unicode="6" horiz-adv-x="497" 
d="M255 415q195 0 195 -196v-19q0 -107 -53 -156.5t-142 -49.5t-142.5 49.5t-53.5 156.5v325q0 107 53 156.5t142 49.5t142.5 -48t53.5 -117q0 -20 -17 -20q-19 0 -19 18q0 58 -46 94.5t-114 36.5q-77 0 -118 -42.5t-41 -127.5v-184q52 74 160 74zM95 228v-28
q0 -85 41.5 -127.5t118.5 -42.5t118 42.5t41 127.5v19q0 84 -40.5 122t-118.5 38q-160 0 -160 -151z" />
    <glyph glyph-name="seven" unicode="7" horiz-adv-x="442" 
d="M424 713v-72q0 -5 -2 -8l-318 -623q-5 -10 -15 -10q-20 0 -20 15q0 5 3 11l316 620v49h-319v-131q0 -7 -5.5 -12.5t-12.5 -5.5t-12.5 5t-5.5 13v149q0 7 5.5 12.5t12.5 5.5h355q6 0 12 -5.5t6 -12.5z" />
    <glyph glyph-name="eight" unicode="8" horiz-adv-x="489" 
d="M245 731q84 -3 130.5 -41t46.5 -130q0 -119 -85 -156q103 -43 103 -186v-18q0 -106 -53 -156t-142 -50t-142.5 50t-53.5 156v18q0 142 104 186q-85 37 -85 156q0 92 46.5 130t130.5 41zM404 200v18q0 84 -41.5 125.5t-117.5 41.5t-118 -41.5t-42 -125.5v-18
q0 -85 42 -127.5t119 -42.5q76 0 117 42.5t41 127.5zM245 695q-70 -3 -105.5 -34t-35.5 -101q0 -138 141 -138t141 138q0 70 -35.5 101t-105.5 34z" />
    <glyph glyph-name="nine" unicode="9" horiz-adv-x="519" 
d="M253 306q-89 0 -142 49.5t-53 156.5v13q0 107 53 156.5t142 49.5t142.5 -49.5t53.5 -156.5v-325q0 -107 -53 -156.5t-142 -49.5q-94 0 -145 51t-51 114q0 20 17 20q19 0 19 -18q0 -59 46 -95t114 -36q77 0 118 42.5t41 127.5v181q-53 -75 -160 -75zM413 503v22
q0 85 -41.5 127.5t-118.5 42.5t-118 -42.5t-41 -127.5v-13q0 -85 41 -127.5t118 -42.5q75 0 117.5 40.5t42.5 120.5z" />
    <glyph glyph-name="colon" unicode=":" horiz-adv-x="209" 
d="M105 80q17 0 30 -13t13 -30t-13 -30t-30 -13q-18 0 -31 13t-13 30t13 30t31 13zM105 422q17 0 30 -13t13 -30t-13 -30t-30 -13q-18 0 -31 13t-13 30t13 30t31 13z" />
    <glyph glyph-name="semicolon" unicode=";" horiz-adv-x="209" 
d="M105 80q17 0 30 -12t13 -39q0 -31 -17 -66t-31 -35q-12 0 -12 16q0 4 16 50q-18 1 -30.5 13.5t-12.5 29.5t13 30t31 13zM105 422q17 0 30 -13t13 -30t-13 -30t-30 -13q-18 0 -31 13t-13 30t13 30t31 13z" />
    <glyph glyph-name="less" unicode="&#x3c;" horiz-adv-x="398" 
d="M334 449l-258 -172l258 -171q9 -5 9 -15q0 -7 -6 -12t-13 -5q-4 0 -9 3l-275 182q-10 6 -10 18q0 11 10 19l275 182q5 3 9 3q7 0 13 -5t6 -12q0 -10 -9 -15z" />
    <glyph glyph-name="equal" unicode="=" horiz-adv-x="431" 
d="M73 176q0 18 17 18h250q7 0 12.5 -5.5t5.5 -12.5t-5.5 -12t-12.5 -5h-250q-17 0 -17 17zM73 379q0 18 17 18h250q7 0 12.5 -5.5t5.5 -12.5t-5.5 -12t-12.5 -5h-250q-17 0 -17 17z" />
    <glyph glyph-name="greater" unicode="&#x3e;" horiz-adv-x="399" 
d="M323 277l-258 172q-9 5 -9 15q0 7 6 12t13 5q5 0 9 -3l275 -182q10 -8 10 -19q0 -12 -10 -18l-275 -182q-4 -3 -9 -3q-7 0 -13 5t-6 12q0 10 9 15z" />
    <glyph glyph-name="question" unicode="?" horiz-adv-x="382" 
d="M180 384l-8 -220q0 -17 -13 -17q-12 0 -12 17l-8 219q0 36 22 36q74 1 111.5 39.5t37.5 107.5q0 70 -38.5 108.5t-113.5 38.5q-34 0 -58.5 -10.5t-37 -20.5t-18.5 -10q-7 0 -13 5t-6 13q0 22 42 40t94 18q91 0 137.5 -50.5t46.5 -131.5q0 -78 -42.5 -127.5t-122.5 -54.5z
M160 -6q-17 0 -30 13t-13 30t13 30t30 13q18 0 31 -13t13 -30t-13 -30t-31 -13z" />
    <glyph glyph-name="at" unicode="@" horiz-adv-x="717" 
d="M236 381q0 18 41.5 29.5t92.5 11.5q120 0 120 -130v-170q2 -21 22.5 -37t43.5 -16q39 0 55.5 48.5t16.5 115.5q0 139 -69.5 216.5t-196.5 77.5q-141 0 -209.5 -87t-68.5 -223q0 -58 13 -108t40 -92t76.5 -66.5t115.5 -24.5q38 0 71 11t52.5 21.5t24.5 10.5q6 0 10.5 -4.5
t4.5 -10.5q0 -25 -53 -44.5t-114 -19.5q-118 0 -197 83.5t-79 245.5q0 154 77.5 250t234.5 96q302 0 302 -333q0 -198 -111 -198q-35 0 -62 18.5t-31 45.5q-31 -29 -54 -40.5t-65 -11.5q-130 0 -130 110q0 66 47.5 90t147.5 24h50v22q0 94 -107 94q-38 0 -64.5 -12
t-29.5 -12q-8 0 -13 6.5t-5 12.5zM455 164v70h-49q-40 0 -64 -2t-49 -9.5t-36.5 -24t-11.5 -43.5q0 -74 89 -74q54 0 87.5 26.5t33.5 56.5z" />
    <glyph glyph-name="A" unicode="A" horiz-adv-x="485" 
d="M422 13l-45 164h-269l-45 -164q-3 -13 -19 -13q-17 0 -17 16q0 3 1 6l197 701q4 14 18 14t19 -14l195 -701q1 -3 1 -6q0 -16 -17 -16q-16 0 -19 13zM243 661l-125 -448h249z" />
    <glyph glyph-name="B" unicode="B" horiz-adv-x="525" 
d="M82 17v696q0 18 18 18h150q99 0 152 -35t53 -132q0 -63 -23 -107t-62 -61q103 -43 103 -176v-17q0 -106 -53.5 -154.5t-142.5 -48.5h-177q-18 2 -18 17zM118 36h159q160 0 160 167v17q0 84 -41 121t-119 37h-159v-342zM118 695v-281h139q86 0 124 33t38 117
q0 77 -42.5 104t-124.5 27h-134z" />
    <glyph glyph-name="C" unicode="C" horiz-adv-x="499" 
d="M106 525v-325q0 -85 41 -127.5t118 -42.5q68 0 109.5 32.5t50.5 98.5q1 18 18 18q18 0 18 -20q-6 -73 -56.5 -119t-139.5 -46t-142 49.5t-53 156.5v325q0 107 53 156.5t142 49.5t139.5 -46t56.5 -119q0 -20 -18 -20q-17 0 -18 18q-9 66 -50.5 98.5t-109.5 32.5
q-77 0 -118 -42.5t-41 -127.5z" />
    <glyph glyph-name="D" unicode="D" horiz-adv-x="544" 
d="M101 731h177q89 0 142.5 -49.5t53.5 -156.5v-319q0 -107 -53.5 -156.5t-142.5 -49.5h-177q-18 0 -18 17v697q0 17 18 17zM278 695h-159v-659h159q77 0 118.5 42.5t41.5 127.5v319q0 85 -41.5 127.5t-118.5 42.5z" />
    <glyph glyph-name="E" unicode="E" horiz-adv-x="499" 
d="M118 695v-311h160q17 0 17 -19q0 -17 -17 -17h-160v-312h338q17 0 17 -19q0 -17 -17 -17h-356q-18 0 -18 18v695q0 18 18 18h356q17 0 17 -17q0 -19 -17 -19h-338z" />
    <glyph glyph-name="F" unicode="F" horiz-adv-x="480" 
d="M100 731h356q17 0 17 -17q0 -19 -17 -19h-338v-311h160q17 0 17 -19q0 -17 -17 -17h-160v-331q0 -17 -18 -17t-18 17v696q0 18 18 18z" />
    <glyph glyph-name="G" unicode="G" horiz-adv-x="520" 
d="M425 348h-159q-17 0 -17 18t17 18h178q17 0 17 -19v-165q0 -107 -53.5 -156.5t-142.5 -49.5t-142 49.5t-53 156.5v325q0 107 53 156.5t142 49.5t139.5 -46t56.5 -119q0 -20 -18 -20q-17 0 -18 18q-9 66 -50.5 98.5t-109.5 32.5q-77 0 -118 -42.5t-41 -127.5v-325
q0 -85 41 -127.5t118 -42.5t118.5 42.5t41.5 127.5v148z" />
    <glyph glyph-name="H" unicode="H" horiz-adv-x="556" 
d="M437 18v343h-319v-343q0 -18 -18 -18t-18 18v696q0 17 18 17t18 -17v-317h319v317q0 17 18 17t18 -17v-696q0 -18 -18 -18t-18 18z" />
    <glyph glyph-name="I" unicode="I" horiz-adv-x="200" 
d="M82 18v696q0 17 18 17t18 -17v-696q0 -18 -18 -18t-18 18z" />
    <glyph glyph-name="J" unicode="J" horiz-adv-x="494" 
d="M221 731h177q18 0 18 -18v-513q0 -107 -53 -156.5t-142 -49.5t-139.5 46t-56.5 119q0 20 17 20q18 0 19 -18q9 -66 50.5 -98.5t109.5 -32.5q77 0 118 42.5t41 127.5v495h-159q-17 0 -17 19q0 17 17 17z" />
    <glyph glyph-name="K" unicode="K" horiz-adv-x="507" 
d="M465 9l-251 376l-96 -120v-247q0 -18 -18 -18t-18 18v696q0 17 18 17t18 -17v-392l323 403q5 6 14 6q7 0 12.5 -6t5.5 -13q0 -6 -4 -10l-231 -287l258 -388q3 -5 3 -9q0 -7 -5.5 -12.5t-13.5 -5.5q-9 0 -15 9z" />
    <glyph glyph-name="L" unicode="L" horiz-adv-x="451" 
d="M422 0h-322q-18 0 -18 18v696q0 17 18 17t18 -17v-678h304q15 0 15 -18t-15 -18z" />
    <glyph glyph-name="M" unicode="M" horiz-adv-x="645" 
d="M526 643l-185 -364q-10 -19 -19 -19q-10 0 -19 19l-184 364v-625q0 -18 -18 -18t-18 18v696q0 17 18 17q11 0 31 -36l190 -382l191 382q20 36 31 36q18 0 18 -17v-696q0 -18 -18 -18t-18 18v625z" />
    <glyph glyph-name="N" unicode="N" horiz-adv-x="557" 
d="M132 695l306 -606v625q0 17 18 17t18 -17v-696q0 -18 -18 -18q-11 0 -29 36l-308 607v-625q0 -18 -18 -18t-18 18v696q0 17 18 17q11 0 31 -36z" />
    <glyph glyph-name="O" unicode="O" 
d="M265 -6q-89 0 -142 49.5t-53 156.5v325q0 107 53 156.5t142 49.5t142.5 -49.5t53.5 -156.5v-325q0 -107 -53.5 -156.5t-142.5 -49.5zM425 200v325q0 85 -41.5 127.5t-118.5 42.5t-118 -42.5t-41 -127.5v-325q0 -85 41 -127.5t118 -42.5t118.5 42.5t41.5 127.5z" />
    <glyph glyph-name="P" unicode="P" horiz-adv-x="514" 
d="M83 18v696q0 15 18 17h177q89 0 142.5 -49.5t53.5 -156.5v-12q0 -107 -53.5 -157t-142.5 -50h-159v-288q0 -18 -18 -18t-18 18zM278 695h-159v-353h159q77 0 118.5 43t41.5 128v12q0 85 -41.5 127.5t-118.5 42.5z" />
    <glyph glyph-name="Q" unicode="Q" 
d="M248 -91v86q-82 4 -130 53.5t-48 151.5v325q0 107 53 156.5t142 49.5t142.5 -49.5t53.5 -156.5v-325q0 -101 -48 -151t-129 -54v-86q0 -18 -18 -18t-18 18zM425 200v325q0 85 -41.5 127.5t-118.5 42.5t-118 -42.5t-41 -127.5v-325q0 -161 142 -170v84q0 17 18 17t18 -17
v-83q141 10 141 169z" />
    <glyph glyph-name="R" unicode="R" horiz-adv-x="508" 
d="M83 18v696q0 15 18 17h167q92 0 149 -45t57 -146q0 -170 -168 -190l165 -321q3 -6 3 -11q0 -8 -5 -13t-13 -5q-4 0 -7.5 2t-7 7t-5.5 8l-4 11q-4 7 -5 8l-160 312h-148v-330q0 -18 -18 -18t-18 18zM268 695h-149v-311h149q79 0 124.5 38t45.5 118t-45.5 117.5
t-124.5 37.5z" />
    <glyph glyph-name="S" unicode="S" horiz-adv-x="486" 
d="M400 192q0 48 -18.5 83.5t-48.5 55.5t-65 35l-72 30q-36 15 -66 33t-48.5 49.5t-18.5 75.5q0 53 17 90.5t45 55t55.5 24.5t58.5 7q88 0 133.5 -47t45.5 -118q0 -20 -18 -20q-20 0 -20 30q0 19 -5.5 37t-18.5 38t-42.5 32t-71.5 12q-26 0 -48.5 -6t-45 -20.5t-36 -44
t-13.5 -70.5q0 -36 18.5 -62t48.5 -42t66 -29.5t71.5 -30.5t65.5 -39t48.5 -60.5t18.5 -90.5q0 -107 -53 -156.5t-141 -49.5q-87 0 -142 47.5t-55 117.5q0 20 19 20q13 0 17 -18q6 -26 12 -42.5t22 -40t46.5 -36t74.5 -12.5q79 0 121.5 41.5t42.5 120.5z" />
    <glyph glyph-name="T" unicode="T" horiz-adv-x="467" 
d="M216 695h-178q-8 0 -13 5.5t-5 12.5t5 12.5t13 5.5h391q18 0 18 -17q0 -19 -18 -19h-177v-677q0 -18 -18 -18t-18 18v677z" />
    <glyph glyph-name="U" unicode="U" horiz-adv-x="547" 
d="M78 200v514q0 17 18 17t18 -17v-514q0 -85 41 -127.5t118 -42.5t118.5 42.5t41.5 127.5v514q0 17 18 17t18 -17v-514q0 -107 -53.5 -156.5t-142.5 -49.5t-142 49.5t-53 156.5z" />
    <glyph glyph-name="V" unicode="V" horiz-adv-x="485" 
d="M63 718l180 -648l179 648q3 13 19 13q17 0 17 -16q0 -3 -1 -6l-195 -701q-5 -14 -19 -14q-15 0 -18 14l-197 701q-1 3 -1 6q0 16 17 16q16 0 19 -13z" />
    <glyph glyph-name="W" unicode="W" horiz-adv-x="741" 
d="M243 70l106 385q5 17 22 17q15 0 20 -17l108 -385l179 648q3 13 19 13q17 0 17 -16q0 -3 -1 -6l-195 -701q-5 -14 -19 -14q-15 0 -18 14l-110 392l-109 -392q-5 -14 -19 -14q-15 0 -18 14l-197 701q-1 3 -1 6q0 16 17 16q16 0 19 -13z" />
    <glyph glyph-name="X" unicode="X" horiz-adv-x="447" 
d="M76 695l147 -290l148 290q18 36 30 36q18 0 18 -14q0 -7 -5 -17l-171 -334l173 -337q3 -6 3 -11q0 -8 -5.5 -13t-12.5 -5q-4 0 -7.5 2t-7 7t-4.5 8l-6 11q-3 7 -4 8l-149 291l-148 -291q-1 -1 -5 -8l-4 -11q-2 -3 -5.5 -8t-7 -7t-7.5 -2q-8 0 -13 5t-5 13q0 5 3 11
l172 337l-170 334q-5 10 -5 17q0 14 18 14q12 0 30 -36z" />
    <glyph glyph-name="Y" unicode="Y" horiz-adv-x="511" 
d="M482 695l-208 -416q-1 -2 -1 -6v-255q0 -18 -18 -18t-18 18v255q0 4 -1 6l-207 416q-6 12 -6 20q0 16 13 16q12 0 20 -17l199 -401l200 401q9 17 20 17q12 0 12 -16q0 -10 -5 -20z" />
    <glyph glyph-name="Z" unicode="Z" horiz-adv-x="454" 
d="M405 0h-355q-8 0 -13 5t-5 13q0 5 3 11l340 666h-325q-18 0 -18 18t18 18h355q18 0 18 -14q0 -7 -5 -17l-339 -664h326q18 0 18 -18t-18 -18z" />
    <glyph glyph-name="bracketleft" unicode="[" horiz-adv-x="277" 
d="M248 -21h-156q-7 0 -12.5 5t-5.5 12v755q0 7 5.5 12t12.5 5h156q7 0 12 -5t5 -12t-5 -12.5t-12 -5.5h-138v-719h138q7 0 12 -5.5t5 -12.5t-5 -12t-12 -5z" />
    <glyph glyph-name="backslash" unicode="\" horiz-adv-x="340" 
d="M278 12l-250 715q-1 3 -1 8q0 9 5.5 14t12.5 5q11 0 14 -9l252 -724q1 -2 1 -6q0 -15 -17 -15q-13 0 -17 12z" />
    <glyph glyph-name="bracketright" unicode="]" horiz-adv-x="277" 
d="M185 -21h-156q-7 0 -12 5t-5 12t5 12.5t12 5.5h138v719h-138q-7 0 -12 5.5t-5 12.5t5 12t12 5h156q7 0 12.5 -5t5.5 -12v-755q0 -7 -5.5 -12t-12.5 -5z" />
    <glyph glyph-name="asciicircum" unicode="^" horiz-adv-x="260" 
d="M130 659l-104 -56q-1 0 -4 -1.5t-4 -1.5q-7 0 -12.5 5.5t-5.5 13.5q0 9 9 14l104 56q8 5 17 5t17 -5l104 -55q9 -4 9 -17q0 -7 -5 -11.5t-12 -4.5l-9 3z" />
    <glyph glyph-name="underscore" unicode="_" horiz-adv-x="454" 
d="M50 17q0 18 17 18h320q7 0 12.5 -5.5t5.5 -12.5t-5.5 -12t-12.5 -5h-320q-17 0 -17 17z" />
    <glyph glyph-name="grave" unicode="`" horiz-adv-x="133" 
d="M105 604l-95 54q-10 6 -10 18q0 18 16 18q3 0 7 -2l102 -60q8 -4 8 -13q0 -7 -5.5 -12.5t-13.5 -5.5q-4 0 -9 3z" />
    <glyph glyph-name="a" unicode="a" horiz-adv-x="422" 
d="M87 472h93q92 0 135 -48.5t43 -128.5v-277q0 -18 -17 -18q-7 0 -12.5 5t-5.5 13v52q-66 -76 -150 -76q-62 0 -100.5 33.5t-38.5 98.5q0 75 59.5 103.5t173.5 28.5h56v37q0 61 -36.5 101.5t-106.5 40.5h-93q-7 0 -12.5 5.5t-5.5 12.5q0 17 18 17zM323 139v84h-55
q-45 0 -75.5 -3t-61.5 -12.5t-46.5 -30t-15.5 -51.5q0 -48 28.5 -72.5t74.5 -24.5q54 0 102.5 38t48.5 72z" />
    <glyph glyph-name="b" unicode="b" horiz-adv-x="468" 
d="M86 768q18 0 18 -17v-349q43 76 134 76q74 0 127 -53t53 -127v-122q0 -72 -53.5 -127t-124.5 -55q-44 0 -81.5 22t-54.5 54v-52q0 -7 -5.5 -12.5t-12.5 -5.5t-12 5.5t-5 12.5v733q0 17 17 17zM383 176v122q0 56 -42.5 100.5t-99.5 44.5q-54 0 -95.5 -40t-41.5 -105v-159
q0 -31 42 -70.5t96 -39.5q56 0 98.5 45t42.5 102z" />
    <glyph glyph-name="c" unicode="c" horiz-adv-x="406" 
d="M234 -6q-90 0 -136.5 50t-46.5 132v120q0 81 46.5 131.5t136.5 50.5q59 0 98 -20t39 -39q0 -7 -6 -12t-12 -5t-19 10t-38.5 20.5t-61.5 10.5q-71 0 -109.5 -39t-38.5 -108v-120q0 -69 38.5 -108t110.5 -39q37 0 61.5 10.5t37 20.5t19.5 10t12.5 -5t5.5 -12
q0 -20 -39 -39.5t-98 -19.5z" />
    <glyph glyph-name="d" unicode="d" horiz-adv-x="468" 
d="M382 768q17 0 17 -17v-733q0 -7 -5 -12.5t-12 -5.5t-12.5 5.5t-5.5 12.5v52q-17 -32 -54.5 -54t-81.5 -22q-71 0 -124.5 55t-53.5 127v122q0 74 53 127t127 53q91 0 134 -76v349q0 17 18 17zM85 298v-122q0 -57 42.5 -102t98.5 -45q54 0 96 39.5t42 70.5v159
q0 65 -41.5 105t-95.5 40q-57 0 -99.5 -44.5t-42.5 -100.5z" />
    <glyph glyph-name="e" unicode="e" horiz-adv-x="444" 
d="M228 478q72 0 124.5 -51.5t52.5 -128.5q0 -26 -6 -42t-20 -23t-25.5 -8.5t-31.5 -1.5h-237v-47q0 -67 47 -107t122 -40q37 0 62 10.5t37.5 20.5t18.5 10q7 0 12.5 -6t5.5 -12q0 -10 -16 -23.5t-49 -24t-73 -10.5q-89 0 -145.5 50.5t-56.5 131.5v125q0 72 52.5 124.5
t125.5 52.5zM85 258h225q37 0 48.5 7t11.5 30q0 57 -40 102.5t-102 45.5q-60 0 -101.5 -42.5t-41.5 -99.5v-43z" />
    <glyph glyph-name="f" unicode="f" horiz-adv-x="289" 
d="M104 590v-118h153q7 0 12.5 -5t5.5 -12t-5.5 -12.5t-12.5 -5.5h-153v-420q0 -7 -5.5 -12t-13.5 -5q-16 0 -16 17v573q0 72 53 125t125 53h10q7 0 12.5 -5t5.5 -13q0 -17 -18 -17h-10q-59 0 -100.5 -43t-42.5 -100z" />
    <glyph glyph-name="g" unicode="g" horiz-adv-x="450" 
d="M220 478q73 0 119 -48q13 27 40.5 44t58.5 17v-39q-61 0 -82 -44q26 -40 26 -94v-45q0 -72 -45.5 -119t-116.5 -47q-47 0 -83 21q-40 -18 -40 -48q0 -22 23.5 -34.5t58.5 -15.5t76 -9.5t76 -16t58.5 -35.5t23.5 -67q0 -64 -50 -99.5t-137 -35.5q-88 0 -141 35t-53 94
q0 79 91 111q-61 17 -61 71q0 46 49 69q-52 46 -52 126v45q0 73 44.5 118.5t116.5 45.5zM347 269v45q0 56 -34 92.5t-93 36.5q-58 0 -92 -36.5t-34 -92.5v-44q0 -58 34 -95t93 -37q57 0 91.5 37t34.5 94zM378 -103q0 21 -11.5 37.5t-26.5 25.5t-40.5 16t-43 9.5t-45.5 5.5
t-36 4q-45 -13 -76.5 -39t-31.5 -63q0 -43 42.5 -69t109.5 -26q71 0 115 28t44 71z" />
    <glyph glyph-name="h" unicode="h" horiz-adv-x="479" 
d="M104 298v-280q0 -7 -5.5 -12.5t-12.5 -5.5t-12 5.5t-5 12.5v733q0 17 17 17q18 0 18 -17v-349q43 76 134 76q74 0 127 -53t53 -127v-280q0 -18 -18 -18q-17 0 -17 18v280q0 56 -42.5 100.5t-99.5 44.5q-54 0 -95.5 -40t-41.5 -105z" />
    <glyph glyph-name="i" unicode="i" horiz-adv-x="173" 
d="M86 472q18 0 18 -17v-437q0 -7 -5.5 -12.5t-12.5 -5.5t-12 5.5t-5 12.5v437q0 7 5 12t12 5zM86 703q17 0 30 -13t13 -30t-13 -30t-30 -13q-18 0 -31 13t-13 30t13 30t31 13z" />
    <glyph glyph-name="j" unicode="j" horiz-adv-x="173" 
d="M86 703q17 0 30 -13t13 -30t-13 -30t-30 -13q-18 0 -31 13t-13 30t13 30t31 13zM86 472q18 0 18 -17v-503q0 -189 -122 -189q-7 0 -12.5 5.5t-5.5 12.5q0 17 18 17q53 0 70 38.5t17 115.5v503q0 17 17 17z" />
    <glyph glyph-name="k" unicode="k" horiz-adv-x="437" 
d="M86 768q18 0 18 -17v-518l270 235q6 4 10 4q19 0 19 -16q0 -10 -6 -15l-161 -140l185 -273q3 -4 3 -10q0 -7 -5 -12.5t-12 -5.5q-8 0 -14 9l-184 269l-105 -92v-168q0 -7 -5.5 -12.5t-12.5 -5.5t-12 5.5t-5 12.5v733q0 17 17 17z" />
    <glyph glyph-name="l" unicode="l" horiz-adv-x="173" 
d="M86 768q18 0 18 -17v-733q0 -7 -5.5 -12.5t-12.5 -5.5t-12 5.5t-5 12.5v733q0 17 17 17z" />
    <glyph glyph-name="m" unicode="m" horiz-adv-x="762" 
d="M381 374q25 51 66.5 77.5t87.5 26.5q67 0 115.5 -49t48.5 -131v-280q0 -7 -5.5 -12.5t-12.5 -5.5t-12 5.5t-5 12.5v280q0 68 -39.5 106.5t-91.5 38.5q-53 0 -93.5 -41.5t-40.5 -103.5v-281q0 -17 -18 -17q-17 0 -17 17v281q0 62 -41 103.5t-95 41.5q-51 0 -90 -38.5
t-39 -106.5v-281q0 -7 -5.5 -12t-12.5 -5t-12 5t-5 12v281q0 82 47.5 131t112.5 49q46 0 88 -26.5t69 -77.5z" />
    <glyph glyph-name="n" unicode="n" horiz-adv-x="477" 
d="M238 478q73 0 125.5 -54t52.5 -126v-280q0 -7 -5.5 -12.5t-12.5 -5.5t-12 5.5t-5 12.5v280q0 57 -42 101t-101 44q-58 0 -100 -44t-42 -101v-281q0 -7 -5.5 -12t-12.5 -5t-12 5t-5 12v281q0 72 52.5 126t124.5 54z" />
    <glyph glyph-name="o" unicode="o" horiz-adv-x="455" 
d="M227 478q72 0 125 -53t53 -127v-122q0 -72 -53.5 -127t-124.5 -55t-124 55t-53 127v122q0 72 52.5 126t124.5 54zM370 176v122q0 56 -42 100.5t-101 44.5t-100.5 -44.5t-41.5 -100.5v-122q0 -57 42 -102t100 -45t100.5 45t42.5 102z" />
    <glyph glyph-name="p" unicode="p" horiz-adv-x="468" 
d="M86 472q18 0 18 -17v-53q43 76 134 76q74 0 127 -53t53 -127v-122q0 -72 -53.5 -127t-124.5 -55q-44 0 -81.5 22t-54.5 54v-289q0 -7 -5.5 -12.5t-12.5 -5.5t-12 5.5t-5 12.5v674q0 17 17 17zM383 176v122q0 56 -42.5 100.5t-99.5 44.5q-54 0 -95.5 -40t-41.5 -105v-159
q0 -31 42 -70.5t96 -39.5q56 0 98.5 45t42.5 102z" />
    <glyph glyph-name="q" unicode="q" horiz-adv-x="468" 
d="M382 472q17 0 17 -17v-674q0 -7 -5 -12.5t-12 -5.5t-12.5 5.5t-5.5 12.5v289q-17 -32 -54.5 -54t-81.5 -22q-71 0 -124.5 55t-53.5 127v122q0 74 53 127t127 53q91 0 134 -76v53q0 17 18 17zM85 298v-122q0 -57 42.5 -102t98.5 -45q54 0 96 39.5t42 70.5v159
q0 65 -41.5 105t-95.5 40q-57 0 -99.5 -44.5t-42.5 -100.5z" />
    <glyph glyph-name="r" unicode="r" horiz-adv-x="278" 
d="M223 478h25q16 0 16 -17q0 -18 -16 -18h-25q-56 0 -91.5 -52t-35.5 -119v-255q0 -7 -5.5 -12t-12.5 -5t-12 5t-5 12v255q0 82 46.5 144t115.5 62z" />
    <glyph glyph-name="s" unicode="s" horiz-adv-x="388" 
d="M198 443q-57 0 -85 -29.5t-28 -64.5q0 -31 27 -52t65.5 -35t77 -29.5t65.5 -45.5t27 -74q0 -55 -40 -87t-110 -32q-79 0 -118.5 35t-39.5 85q0 24 18 24q17 0 17 -25q0 -32 30 -58t92 -26q59 0 87.5 23.5t28.5 60.5q0 34 -27 57.5t-65 37.5l-78 30q-38 16 -65 44t-27 68
q0 49 37.5 88.5t108.5 39.5q66 0 103 -34.5t37 -87.5q0 -26 -17 -26q-18 0 -18 25q-2 88 -103 88z" />
    <glyph glyph-name="t" unicode="t" horiz-adv-x="272" 
d="M66 139v547q0 7 5.5 12t11.5 5q7 0 12.5 -5t5.5 -12v-214h135q7 0 12 -5.5t5 -12.5t-5 -12t-12 -5h-135v-298q0 -57 25 -80.5t86 -23.5h23q7 0 12 -5t5 -12t-5 -12.5t-12 -5.5h-23q-146 0 -146 139z" />
    <glyph glyph-name="u" unicode="u" horiz-adv-x="477" 
d="M239 -6q-73 0 -125.5 54t-52.5 126v280q0 7 5.5 12.5t12.5 5.5t12 -5.5t5 -12.5v-280q0 -57 42 -101t101 -44q58 0 100 44t42 101v281q0 7 5.5 12t12.5 5t12 -5t5 -12v-281q0 -72 -52.5 -126t-124.5 -54z" />
    <glyph glyph-name="v" unicode="v" horiz-adv-x="392" 
d="M354 472q7 0 13 -5t6 -12q0 -3 -4 -15l-156 -434q-5 -12 -17 -12t-17 12l-156 434q-4 12 -4 14q0 8 5.5 13t12.5 5q12 0 17 -11l142 -393l141 387l1 5q2 4 2.5 4.5t2.5 3.5t4.5 3.5t6.5 0.5z" />
    <glyph glyph-name="w" unicode="w" horiz-adv-x="653" 
d="M616 472q18 0 18 -17q0 -6 -4 -14l-157 -435q-4 -12 -15 -12q-8 0 -14 11l-117 375l-115 -369q-6 -17 -17 -17q-7 0 -10 3t-7 14l-156 430q-4 8 -4 13q0 8 5 13t13 5q12 0 17 -11l141 -391l115 362q5 13 18 13t18 -13l111 -367l144 396q3 11 16 11z" />
    <glyph glyph-name="x" unicode="x" horiz-adv-x="380" 
d="M336 478q7 0 12.5 -5t5.5 -13q0 -4 -3 -9l-139 -215l139 -215q3 -5 3 -10q0 -7 -5.5 -12t-12.5 -5q-9 0 -14 8l-131 201l-132 -201q-6 -8 -15 -8q-7 0 -12.5 5t-5.5 12q0 5 3 10l140 215l-140 215q-3 5 -3 9q0 8 5 13t13 5q10 0 15 -8l132 -202l131 202q5 8 14 8z" />
    <glyph glyph-name="y" unicode="y" horiz-adv-x="393" 
d="M357 478q18 0 18 -17q0 -4 -1 -6l-160 -442l-20 -55q-6 -16 -21.5 -53t-28 -56t-30 -42t-37.5 -33.5t-42 -10.5q-7 0 -12 5t-5 12q0 18 15 18q17 0 33 8t30 27.5t23.5 34.5t23 48t18.5 46l18 51l-160 442q-2 4 -2 6q0 7 5.5 12t13.5 5q13 0 16 -11l145 -400l144 400
q5 11 16 11z" />
    <glyph glyph-name="z" unicode="z" horiz-adv-x="383" 
d="M82 35h253q7 0 12.5 -5.5t5.5 -12.5t-5.5 -12t-12.5 -5h-287q-18 0 -18 16q0 8 4 12l267 409h-253q-7 0 -12.5 5t-5.5 12q0 8 5 13t13 5h287q7 0 12.5 -5t5.5 -13q0 -6 -3 -10z" />
    <glyph glyph-name="braceleft" unicode="{" horiz-adv-x="275" 
d="M31 384q0 11 9.5 14.5t20.5 4t20.5 5t9.5 14.5q0 8 -10.5 88t-10.5 97q0 65 51.5 113t123.5 48q7 0 12 -5t5 -12t-5 -12.5t-12 -5.5q-60 0 -99.5 -39t-39.5 -90q0 -17 10.5 -95.5t10.5 -86.5q0 -15 -12 -25t-24 -13q12 -2 24 -12t12 -25q0 -10 -10.5 -104.5t-10.5 -115.5
q0 -31 15 -54.5t38 -35t45 -17t41 -5.5q17 0 17 -17q0 -8 -5.5 -13t-11.5 -5q-75 0 -125 41.5t-50 107.5q0 18 10.5 114t10.5 104q0 10 -9.5 14t-20.5 3.5t-20.5 4t-9.5 15.5z" />
    <glyph glyph-name="bar" unicode="|" horiz-adv-x="184" 
d="M92 -21q-7 0 -12.5 5t-5.5 12v755q0 7 5.5 12t12.5 5t12.5 -5t5.5 -12v-755q0 -7 -5.5 -12t-12.5 -5z" />
    <glyph glyph-name="braceright" unicode="}" horiz-adv-x="274" 
d="M243 384q0 -11 -9.5 -15.5t-20.5 -4t-20.5 -3.5t-9.5 -14q0 -8 10.5 -104t10.5 -114q0 -66 -50 -107.5t-125 -41.5q-6 0 -11.5 5t-5.5 13q0 17 17 17q19 0 41 5.5t45 17t38 35t15 54.5q0 21 -10.5 115.5t-10.5 104.5q0 15 12 25t24 12q-12 3 -24 13t-12 25q0 8 10.5 86.5
t10.5 95.5q0 51 -39.5 90t-99.5 39q-7 0 -12 5.5t-5 12.5t5 12t12 5q72 0 123.5 -48t51.5 -113q0 -17 -10.5 -97t-10.5 -88q0 -10 9.5 -14.5t20.5 -5t20.5 -4t9.5 -14.5z" />
    <glyph glyph-name="asciitilde" unicode="~" horiz-adv-x="399" 
d="M269 257q20 0 32.5 8t19.5 16t13 8q14 0 14 -15q0 -21 -28.5 -36t-55.5 -15q-23 0 -61.5 18.5t-67.5 18.5q-19 0 -33 -9t-22.5 -17.5t-13.5 -8.5q-13 0 -13 17q0 19 30.5 35.5t58.5 16.5q24 0 62.5 -18.5t64.5 -18.5z" />
    <glyph glyph-name="uni00A0" unicode="&#xa0;" horiz-adv-x="205" 
 />
    <glyph glyph-name="exclamdown" unicode="&#xa1;" horiz-adv-x="191" 
d="M70 29l18 549q0 17 8 17q7 0 7 -17l18 -549q0 -13 -6.5 -24t-20.5 -11q-24 0 -24 35zM95 748q17 0 30 -13t13 -30t-13 -30t-30 -13q-18 0 -31 13t-13 30t13 30t31 13z" />
    <glyph glyph-name="cent" unicode="&#xa2;" horiz-adv-x="406" 
d="M201 40q-7 0 -12.5 5t-5.5 12v120q-69 11 -105.5 59.5t-36.5 119.5v20q0 71 35.5 119t106.5 60v122q0 7 5.5 12t12.5 5t12.5 -5t5.5 -12v-119q56 0 99 -18t43 -40q0 -8 -6 -13t-13 -5q-6 0 -18.5 10t-37.5 20.5t-61 10.5h-6v-314h6q36 0 61 10.5t37.5 20.5t18.5 10
q7 0 13 -5t6 -13q0 -23 -44.5 -40.5t-97.5 -17.5v-117q0 -7 -5.5 -12t-12.5 -5zM76 376v-20q0 -122 107 -143v306q-107 -22 -107 -143z" />
    <glyph glyph-name="sterling" unicode="&#xa3;" horiz-adv-x="455" 
d="M49 384q0 18 17 18h91l27 188q11 73 70 125.5t133 52.5h12q20 0 20 -18q0 -7 -5.5 -12t-14.5 -5h-17q-59 0 -107 -43t-56 -100l-27 -188h163q16 0 16 -18q0 -17 -16 -17h-168l-47 -331h263q16 0 16 -18t-16 -18h-360q-18 0 -18 18t18 18h63l46 331h-86q-17 0 -17 17z" />
    <glyph glyph-name="currency" unicode="&#xa4;" horiz-adv-x="479" 
d="M241 652q60 0 110 -40l28 28q5 5 13 5q7 0 12 -5t5 -12q0 -8 -5 -13l-28 -28q43 -49 43 -115q0 -63 -44 -115l29 -29q5 -7 5 -12q0 -6 -5 -11.5t-12 -5.5q-8 0 -12 5l-29 28q-50 -42 -110 -42q-64 0 -116 47l-33 -33q-5 -5 -12 -5t-12 5t-5 12t5 12l34 34q-38 49 -38 110
t37 109l-26 27q-5 5 -5 13q0 7 5.5 12t12.5 5t12 -5l25 -26q50 45 116 45zM381 472q0 55 -41.5 98.5t-98.5 43.5t-98 -43.5t-41 -98.5q0 -56 41 -100t98 -44t98.5 44t41.5 100z" />
    <glyph glyph-name="yen" unicode="&#xa5;" horiz-adv-x="476" 
d="M95 229q0 18 17 18h104v80l-189 380q-2 4 -2 7q0 6 5 11.5t13 5.5q11 0 17 -10l174 -346l184 346q6 10 17 10q16 0 16 -17q0 -5 -1 -7l-199 -380v-80h111q7 0 12.5 -5.5t5.5 -12.5t-5.5 -12t-12.5 -5h-111v-78h111q7 0 12.5 -5.5t5.5 -12.5t-5.5 -12t-12.5 -5h-111v-82
q0 -7 -5 -12t-12 -5t-12.5 5t-5.5 12v82h-104q-17 0 -17 17q0 18 17 18h104v78h-104q-17 0 -17 17z" />
    <glyph glyph-name="brokenbar" unicode="&#xa6;" horiz-adv-x="186" 
d="M93 -21q-7 0 -12.5 5t-5.5 12v282q0 7 5.5 12t12.5 5t12.5 -5t5.5 -12v-282q0 -7 -5.5 -12t-12.5 -5zM93 452q-7 0 -12.5 5t-5.5 12v282q0 7 5.5 12t12.5 5t12.5 -5t5.5 -12v-282q0 -7 -5.5 -12t-12.5 -5z" />
    <glyph glyph-name="section" unicode="&#xa7;" horiz-adv-x="428" 
d="M357 375q0 -47 -31.5 -83t-80.5 -47q58 -22 90.5 -51t32.5 -81q0 -55 -40 -87t-110 -32q-79 0 -118.5 35t-39.5 85q0 24 18 24q10 0 13 -6t4 -19q3 -36 32 -60t90 -24q59 0 87.5 23.5t28.5 60.5q0 35 -27 59q-28 26 -66 40l-76 29q-38 15 -65.5 42t-27.5 67q0 50 30 85
t82 45q-58 22 -90.5 51t-32.5 81q0 55 40 87t110 32q79 0 118.5 -35t39.5 -85q0 -24 -18 -24q-10 0 -13 6t-4 19q-3 36 -32 60t-90 24q-59 0 -87.5 -23.5t-28.5 -60.5q0 -35 27 -60q28 -24 66 -38l76 -30q38 -15 65.5 -42t27.5 -67zM209 275q52 0 82 28.5t30 61.5
q0 34 -25 59.5t-77 25.5q-53 0 -83 -29t-30 -62q0 -34 25.5 -59t77.5 -25z" />
    <glyph glyph-name="dieresis" unicode="&#xa8;" horiz-adv-x="136" 
d="M27 703q10 0 18 -13t8 -30t-8 -30t-18 -13q-11 0 -19 13t-8 30t8 30t19 13zM110 703q10 0 18 -13t8 -30t-8 -30t-18 -13q-11 0 -19 13t-8 30t8 30t19 13z" />
    <glyph glyph-name="copyright" unicode="&#xa9;" horiz-adv-x="706" 
d="M46 358q0 80 28.5 144.5t74.5 103t99.5 59t107.5 20.5t107 -20.5t97.5 -59t72 -102t27.5 -141.5q0 -80 -28.5 -144.5t-74.5 -103t-99.5 -59t-107.5 -20.5t-107 20.5t-97.5 59t-72 102t-27.5 141.5zM625 362q0 126 -74.5 207t-194.5 81t-197.5 -81.5t-77.5 -210.5
q0 -126 74.5 -207t194.5 -81t197.5 81.5t77.5 210.5zM291 449v-165q0 -80 67 -80q31 0 46 21.5t15 39.5q0 7 6 11t11 4q21 0 21 -18q-2 -39 -29 -65t-74 -26q-46 0 -73.5 27.5t-27.5 85.5v165q0 58 28 85.5t73 27.5q52 0 77.5 -29.5t25.5 -58.5q0 -21 -19 -21q-17 0 -19 15
q-11 61 -63 61q-65 0 -65 -80z" />
    <glyph glyph-name="ordfeminine" unicode="&#xaa;" horiz-adv-x="285" 
d="M71 768h54q57 0 83.5 -29t26.5 -78v-161q0 -13 -12 -13q-18 0 -20 32q-37 -37 -82 -37q-39 0 -63 20.5t-24 60.5q0 46 36 63.5t106 17.5h26v17q0 33 -19.5 55t-57.5 22h-54q-7 0 -12 4.5t-5 11.5q0 14 17 14zM202 570v44h-31q-49 0 -76.5 -10t-27.5 -41q0 -26 14.5 -39
t38.5 -13q29 0 55.5 20.5t26.5 38.5z" />
    <glyph glyph-name="guillemotleft" unicode="&#xab;" horiz-adv-x="361" 
d="M136 83l-96 177q-5 8 -5 17t5 17l96 178q4 9 17 9q7 0 11.5 -5t4.5 -12q0 -4 -3 -9l-96 -178l96 -177q3 -4 3 -9q0 -7 -5.5 -12t-12.5 -5q-10 0 -15 9zM282 83l-96 177q-5 8 -5 17t5 17l96 178q4 9 17 9q7 0 11.5 -5t4.5 -12q0 -4 -3 -9l-96 -178l96 -177q3 -4 3 -9
q0 -7 -5.5 -12t-12.5 -5q-10 0 -15 9z" />
    <glyph glyph-name="logicalnot" unicode="&#xac;" horiz-adv-x="479" 
d="M389 63q-18 0 -18 17v143h-293q-17 0 -17 17q0 18 17 18h310q7 0 12.5 -5.5t5.5 -12.5v-160q0 -17 -17 -17z" />
    <glyph glyph-name="uni00AD" unicode="&#xad;" horiz-adv-x="478" 
d="M62 240q0 18 17 18h320q7 0 12.5 -5.5t5.5 -12.5t-5.5 -12t-12.5 -5h-320q-17 0 -17 17z" />
    <glyph glyph-name="registered" unicode="&#xae;" horiz-adv-x="706" 
d="M46 358q0 80 28.5 144.5t74.5 103t99.5 59t107.5 20.5t107 -20.5t97.5 -59t72 -102t27.5 -141.5q0 -80 -28.5 -144.5t-74.5 -103t-99.5 -59t-107.5 -20.5t-107 20.5t-97.5 59t-72 102t-27.5 141.5zM625 362q0 126 -74.5 207t-194.5 81t-197.5 -81.5t-77.5 -210.5
q0 -126 74.5 -207t194.5 -81t197.5 81.5t77.5 210.5zM261 190v355q0 6 5 11t13 5h79q107 0 107 -105q0 -86 -75 -102l73 -155q2 -6 2 -9q0 -17 -17 -17q-16 0 -31 36l-67 142h-51v-161q0 -17 -19 -17t-19 17zM358 528h-59v-144h59q69 0 69 72t-69 72z" />
    <glyph glyph-name="macron" unicode="&#xaf;" horiz-adv-x="255" 
d="M0 655q0 18 17 18h220q7 0 12.5 -5.5t5.5 -12.5t-5.5 -12t-12.5 -5h-220q-17 0 -17 17z" />
    <glyph glyph-name="degree" unicode="&#xb0;" horiz-adv-x="422" 
d="M211 768q72 0 125 -53t53 -127q0 -72 -53.5 -127t-124.5 -55t-124 55t-53 127t52.5 126t124.5 54zM351 588q0 55 -41.5 98.5t-98.5 43.5t-98 -43.5t-41 -98.5q0 -56 41 -100t98 -44t98.5 44t41.5 100z" />
    <glyph glyph-name="plusminus" unicode="&#xb1;" horiz-adv-x="484" 
d="M243 271q-18 0 -18 17v143h-143q-17 0 -17 17q0 18 17 18h143v142q0 7 5.5 12.5t12.5 5.5t12 -5.5t5 -12.5v-142h142q7 0 12.5 -5.5t5.5 -12.5t-5.5 -12t-12.5 -5h-142v-143q0 -17 -17 -17zM65 188q0 18 17 18h320q7 0 12.5 -5.5t5.5 -12.5t-5.5 -12t-12.5 -5h-320
q-17 0 -17 17z" />
    <glyph glyph-name="uni00B2" unicode="&#xb2;" horiz-adv-x="331" 
d="M57 666q0 48 30 75t80 27q49 0 84 -34t35 -82q0 -33 -21 -63q-21 -31 -51 -53l-62 -42q-31 -20 -51.5 -43t-20.5 -45v-41h190q16 0 16 -15t-37 -15h-185q-6 0 -11.5 4.5t-5.5 10.5v56q0 27 21 53q22 26 52 47l60 42q30 22 51.5 48.5t21.5 55.5q0 36 -25.5 61t-60.5 25
q-76 0 -76 -72q0 -5 -5 -9.5t-12 -4.5t-12 4.5t-5 9.5z" />
    <glyph glyph-name="uni00B3" unicode="&#xb3;" horiz-adv-x="322" 
d="M164 560q-9 0 -15 5t-6 11q0 15 17 15q39 0 57 15.5t18 51.5q0 41 -17 60.5t-56 19.5q-33 0 -51 -13.5t-21 -29.5t-9 -29.5t-17 -13.5q-5 0 -9.5 4.5t-4.5 11.5q0 40 26.5 70t85.5 30q107 0 107 -104q0 -63 -45 -89q55 -29 55 -108v-11q0 -65 -32.5 -94.5t-86.5 -29.5
q-53 0 -86.5 29t-33.5 71q0 16 17 16q9 0 15 -13.5t10.5 -29.5t23.5 -29.5t52 -13.5q88 0 88 94v11q0 45 -21.5 69t-60.5 24z" />
    <glyph glyph-name="acute" unicode="&#xb4;" horiz-adv-x="133" 
d="M123 658l-95 -54q-4 -3 -9 -3q-8 0 -13.5 5.5t-5.5 12.5q0 9 8 13l102 60q4 2 7 2q16 0 16 -18q0 -12 -10 -18z" />
    <glyph glyph-name="uni00B5" unicode="&#xb5;" horiz-adv-x="492" 
d="M111 454v-304q0 -36 46 -78.5t98 -42.5q53 0 94 45t41 100v280q0 18 17 18q18 0 18 -18v-280q0 -75 -49.5 -127.5t-122.5 -52.5q-48 0 -86 22t-56 54v-290q0 -17 -18 -17q-17 0 -17 17v674q0 7 5 12.5t12 5.5t12.5 -5.5t5.5 -12.5z" />
    <glyph glyph-name="paragraph" unicode="&#xb6;" horiz-adv-x="512" 
d="M234 731h177q18 0 18 -18v-696q0 -17 -18 -17t-18 17v678h-75v-677q0 -18 -18 -18t-18 18v288h-48q-89 0 -142.5 50t-53.5 157v12q0 107 53.5 156.5t142.5 49.5z" />
    <glyph glyph-name="periodcentered" unicode="&#xb7;" horiz-adv-x="187" 
d="M94 343q17 0 30 -13t13 -30t-13 -30t-30 -13q-18 0 -31 13t-13 30t13 30t31 13z" />
    <glyph glyph-name="cedilla" unicode="&#xb8;" horiz-adv-x="156" 
d="M156 -134q0 -75 -81 -75q-35 0 -75 14v35q36 -14 74 -14q49 0 49 41q0 21 -17 27.5t-50 6.5h-30v107h34v-72q21 0 33.5 -1.5t29.5 -7.5t25 -21.5t8 -39.5z" />
    <glyph glyph-name="uni00B9" unicode="&#xb9;" horiz-adv-x="293" 
d="M37 350q0 15 17 15h76v326q0 -2 -4 -8l-6 -10q-2 -4 -6 -8.5t-7.5 -7t-6.5 -2.5q-15 0 -15 14q0 2 6 14l37 72q7 13 20 13q15 0 15 -14v-389h76q6 0 11.5 -4.5t5.5 -10.5t-5.5 -10.5t-11.5 -4.5h-185q-17 0 -17 15z" />
    <glyph glyph-name="ordmasculine" unicode="&#xba;" horiz-adv-x="301" 
d="M150 768q44 0 77 -32t33 -77v-71q0 -44 -33 -77t-77 -33q-43 0 -76 33t-33 77v71q0 44 32 76.5t77 32.5zM227 588v71q0 30 -23 54.5t-54 24.5t-53.5 -24.5t-22.5 -54.5v-71q0 -31 22.5 -56t53.5 -25t54 25t23 56z" />
    <glyph glyph-name="guillemotright" unicode="&#xbb;" horiz-adv-x="361" 
d="M321 260l-96 -177q-5 -9 -15 -9q-7 0 -12.5 5t-5.5 12q0 5 3 9l96 177l-96 178q-3 5 -3 9q0 7 4.5 12t11.5 5q12 0 17 -9l96 -178q5 -8 5 -17t-5 -17zM175 260l-96 -177q-5 -9 -15 -9q-7 0 -12.5 5t-5.5 12q0 5 3 9l96 177l-96 178q-3 5 -3 9q0 7 4.5 12t11.5 5
q12 0 17 -9l96 -178q5 -8 5 -17t-5 -17z" />
    <glyph glyph-name="onequarter" unicode="&#xbc;" horiz-adv-x="688" 
d="M583 15v88h-131q-30 0 -30 15q0 5 2 9l143 282q12 24 23 24q17 0 17 -14q0 -2 -3 -8l-140 -277h119v59q0 15 17 15t17 -15v-59h28q16 0 16 -16q0 -15 -29 -15h-15v-74q0 -29 -17 -29t-17 15zM581 738l-388 -747q-5 -11 -17 -11q-16 0 -16 15q0 6 2 9l391 756q4 8 13 8
q6 0 12 -5.5t6 -13.5q0 -5 -3 -11zM27 313q0 15 17 15h76v326q0 -2 -4 -8l-6 -10q-2 -4 -6 -8.5t-7.5 -7t-6.5 -2.5q-15 0 -15 14q0 2 6 14l37 72q7 13 20 13q15 0 15 -14v-389h76q6 0 11.5 -4.5t5.5 -10.5t-5.5 -10.5t-11.5 -4.5h-185q-17 0 -17 15z" />
    <glyph glyph-name="onehalf" unicode="&#xbd;" horiz-adv-x="762" 
d="M27 313q0 15 17 15h76v326q0 -2 -4 -8l-6 -10q-2 -4 -6 -8.5t-7.5 -7t-6.5 -2.5q-15 0 -15 14q0 2 6 14l37 72q7 13 20 13q15 0 15 -14v-389h76q6 0 11.5 -4.5t5.5 -10.5t-5.5 -10.5t-11.5 -4.5h-185q-17 0 -17 15zM492 331q0 48 30 75t80 27q49 0 84 -34t35 -82
q0 -33 -21 -63q-22 -30 -52 -52l-60 -44q-30 -20 -51.5 -42.5t-21.5 -44.5v-41h190q16 0 16 -15t-37 -15h-185q-6 0 -11.5 4.5t-5.5 10.5v56q0 27 21 53t51 47l62 43q30 22 51 48t21 55q0 36 -25.5 61t-60.5 25q-76 0 -76 -72q0 -5 -5 -9.5t-12 -4.5t-12 4.5t-5 9.5z
M581 738l-388 -747q-5 -11 -17 -11q-16 0 -16 15q0 6 2 9l391 756q4 8 13 8q6 0 12 -5.5t6 -13.5q0 -5 -3 -11z" />
    <glyph glyph-name="threequarters" unicode="&#xbe;" horiz-adv-x="710" 
d="M163 523q-9 0 -15 5t-6 11q0 15 17 15q39 0 57 15t18 52q0 41 -17 60.5t-56 19.5q-33 0 -51 -13.5t-21 -29.5t-9 -29.5t-17 -13.5q-5 0 -9.5 4.5t-4.5 11.5q0 40 26.5 70t85.5 30q107 0 107 -104q0 -63 -45 -89q55 -29 55 -108v-11q0 -65 -32.5 -94.5t-86.5 -29.5
q-53 0 -86.5 29t-33.5 71q0 16 17 16q9 0 15 -13.5t10.5 -29.5t23.5 -29.5t52 -13.5q88 0 88 94v11q0 45 -21.5 69t-60.5 24zM605 15v88h-131q-30 0 -30 15q0 5 2 9l143 282q12 24 23 24q17 0 17 -14q0 -2 -3 -8l-140 -277h119v59q0 15 17 15t17 -15v-59h28q16 0 16 -16
q0 -15 -29 -15h-15v-74q0 -29 -17 -29t-17 15zM603 738l-388 -747q-5 -11 -17 -11q-16 0 -16 15q0 6 2 9l391 756q4 8 13 8q6 0 12 -5.5t6 -13.5q0 -5 -3 -11z" />
    <glyph glyph-name="questiondown" unicode="&#xbf;" horiz-adv-x="382" 
d="M202 358l8 220q0 17 13 17q12 0 12 -17l8 -219q0 -36 -22 -36q-74 -1 -111.5 -39.5t-37.5 -107.5q0 -70 38.5 -108.5t113.5 -38.5q34 0 58.5 10.5t37 20.5t18.5 10q7 0 13 -5t6 -13q0 -22 -42 -40t-94 -18q-91 0 -137.5 50.5t-46.5 131.5q0 78 42.5 127.5t122.5 54.5z
M222 748q17 0 30 -13t13 -30t-13 -30t-30 -13q-18 0 -31 13t-13 30t13 30t31 13z" />
    <glyph glyph-name="Agrave" unicode="&#xc0;" horiz-adv-x="485" 
d="M422 13l-45 164h-269l-45 -164q-3 -13 -19 -13q-17 0 -17 16q0 3 1 6l197 701q4 14 18 14t19 -14l195 -701q1 -3 1 -6q0 -16 -17 -16q-16 0 -19 13zM243 661l-125 -448h249zM281 863l-95 54q-10 6 -10 18q0 18 16 18q3 0 7 -2l102 -60q8 -4 8 -13q0 -7 -5.5 -12.5
t-13.5 -5.5q-4 0 -9 3z" />
    <glyph glyph-name="Aacute" unicode="&#xc1;" horiz-adv-x="485" 
d="M422 13l-45 164h-269l-45 -164q-3 -13 -19 -13q-17 0 -17 16q0 3 1 6l197 701q4 14 18 14t19 -14l195 -701q1 -3 1 -6q0 -16 -17 -16q-16 0 -19 13zM243 661l-125 -448h249zM299 917l-95 -54q-4 -3 -9 -3q-8 0 -13.5 5.5t-5.5 12.5q0 9 8 13l102 60q4 2 7 2q16 0 16 -18
q0 -12 -10 -18z" />
    <glyph glyph-name="Acircumflex" unicode="&#xc2;" horiz-adv-x="485" 
d="M422 13l-45 164h-269l-45 -164q-3 -13 -19 -13q-17 0 -17 16q0 3 1 6l197 701q4 14 18 14t19 -14l195 -701q1 -3 1 -6q0 -16 -17 -16q-16 0 -19 13zM243 661l-125 -448h249zM242 918l-104 -56q-1 0 -4 -1.5t-4 -1.5q-7 0 -12.5 5.5t-5.5 13.5q0 9 9 14l104 56q8 5 17 5
t17 -5l104 -55q9 -4 9 -17q0 -7 -5 -11.5t-12 -4.5l-9 3z" />
    <glyph glyph-name="Atilde" unicode="&#xc3;" horiz-adv-x="485" 
d="M422 13l-45 164h-269l-45 -164q-3 -13 -19 -13q-17 0 -17 16q0 3 1 6l197 701q4 14 18 14t19 -14l195 -701q1 -3 1 -6q0 -16 -17 -16q-16 0 -19 13zM243 661l-125 -448h249zM311 912q20 0 32.5 8t19.5 16t13 8q14 0 14 -15q0 -21 -28.5 -36t-55.5 -15q-23 0 -61.5 18.5
t-67.5 18.5q-19 0 -33 -9t-22.5 -17.5t-13.5 -8.5q-13 0 -13 17q0 19 30.5 35.5t58.5 16.5q24 0 62.5 -18.5t64.5 -18.5z" />
    <glyph glyph-name="Adieresis" unicode="&#xc4;" horiz-adv-x="485" 
d="M422 13l-45 164h-269l-45 -164q-3 -13 -19 -13q-17 0 -17 16q0 3 1 6l197 701q4 14 18 14t19 -14l195 -701q1 -3 1 -6q0 -16 -17 -16q-16 0 -19 13zM243 661l-125 -448h249zM201 962q10 0 18 -13t8 -30t-8 -30t-18 -13q-11 0 -19 13t-8 30t8 30t19 13zM284 962
q10 0 18 -13t8 -30t-8 -30t-18 -13q-11 0 -19 13t-8 30t8 30t19 13z" />
    <glyph glyph-name="Aring" unicode="&#xc5;" horiz-adv-x="485" 
d="M422 13l-45 164h-269l-45 -164q-3 -13 -19 -13q-17 0 -17 16q0 3 1 6l197 701q4 14 18 14t19 -14l195 -701q1 -3 1 -6q0 -16 -17 -16q-16 0 -19 13zM243 661l-125 -448h249zM242 1027q32 0 57 -25t25 -58q0 -34 -25 -59.5t-57 -25.5q-33 0 -57.5 25.5t-24.5 59.5
q0 33 24 58t58 25zM294 944q0 19 -15.5 35.5t-36.5 16.5q-22 0 -37.5 -16t-15.5 -36q0 -22 15.5 -39t37.5 -17q21 0 36.5 17t15.5 39z" />
    <glyph glyph-name="AE" unicode="&#xc6;" horiz-adv-x="680" 
d="M396 695v-311h160q17 0 17 -19q0 -17 -17 -17h-160v-312h237q17 0 17 -19q0 -17 -17 -17h-255q-18 0 -18 18v330h-247v-325q0 -23 -18 -23t-18 23v502q0 107 53.5 156.5t142.5 49.5h360q17 0 17 -17q0 -19 -17 -19h-237zM113 525v-141h247v311h-87q-77 0 -118.5 -42.5
t-41.5 -127.5z" />
    <glyph glyph-name="Ccedilla" unicode="&#xc7;" horiz-adv-x="499" 
d="M106 525v-325q0 -85 41 -127.5t118 -42.5q68 0 109.5 32.5t50.5 98.5q1 18 18 18q18 0 18 -20q-6 -73 -56.5 -119t-139.5 -46t-142 49.5t-53 156.5v325q0 107 53 156.5t142 49.5t139.5 -46t56.5 -119q0 -20 -18 -20q-17 0 -18 18q-9 66 -50.5 98.5t-109.5 32.5
q-77 0 -118 -42.5t-41 -127.5zM390 -134q0 -75 -81 -75q-35 0 -75 14v35q36 -14 74 -14q49 0 49 41q0 21 -17 27.5t-50 6.5h-30v107h34v-72q21 0 33.5 -1.5t29.5 -7.5t25 -21.5t8 -39.5z" />
    <glyph glyph-name="Egrave" unicode="&#xc8;" horiz-adv-x="499" 
d="M118 695v-311h160q17 0 17 -19q0 -17 -17 -17h-160v-312h338q17 0 17 -19q0 -17 -17 -17h-356q-18 0 -18 18v695q0 18 18 18h356q17 0 17 -17q0 -19 -17 -19h-338zM316 863l-95 54q-10 6 -10 18q0 18 16 18q3 0 7 -2l102 -60q8 -4 8 -13q0 -7 -5.5 -12.5t-13.5 -5.5
q-5 0 -9 3z" />
    <glyph glyph-name="Eacute" unicode="&#xc9;" horiz-adv-x="499" 
d="M118 695v-311h160q17 0 17 -19q0 -17 -17 -17h-160v-312h338q17 0 17 -19q0 -17 -17 -17h-356q-18 0 -18 18v695q0 18 18 18h356q17 0 17 -17q0 -19 -17 -19h-338zM334 917l-95 -54q-4 -3 -9 -3q-8 0 -13.5 5.5t-5.5 12.5q0 9 8 13l102 60q4 2 7 2q16 0 16 -18
q0 -12 -10 -18z" />
    <glyph glyph-name="Ecircumflex" unicode="&#xca;" horiz-adv-x="499" 
d="M118 695v-311h160q17 0 17 -19q0 -17 -17 -17h-160v-312h338q17 0 17 -19q0 -17 -17 -17h-356q-18 0 -18 18v695q0 18 18 18h356q17 0 17 -17q0 -19 -17 -19h-338zM277 918l-104 -56q-1 0 -4 -1.5t-4 -1.5q-7 0 -12.5 5.5t-5.5 13.5q0 10 9 14l104 56q8 5 17 5t17 -5
l104 -55q9 -5 9 -17q0 -7 -5 -11.5t-12 -4.5l-9 3z" />
    <glyph glyph-name="Edieresis" unicode="&#xcb;" horiz-adv-x="499" 
d="M118 695v-311h160q17 0 17 -19q0 -17 -17 -17h-160v-312h338q17 0 17 -19q0 -17 -17 -17h-356q-18 0 -18 18v695q0 18 18 18h356q17 0 17 -17q0 -19 -17 -19h-338zM236 962q10 0 18 -13t8 -30t-8 -30t-18 -13q-11 0 -19 13t-8 30t8 30t19 13zM319 962q10 0 18 -13t8 -30
t-8 -30t-18 -13q-11 0 -19 13t-8 30t8 30t19 13z" />
    <glyph glyph-name="Igrave" unicode="&#xcc;" horiz-adv-x="200" 
d="M82 18v696q0 17 18 17t18 -17v-696q0 -18 -18 -18t-18 18zM138 863l-95 54q-10 6 -10 18q0 18 16 18q3 0 7 -2l102 -60q8 -4 8 -13q0 -7 -5.5 -12.5t-13.5 -5.5q-5 0 -9 3z" />
    <glyph glyph-name="Iacute" unicode="&#xcd;" horiz-adv-x="200" 
d="M82 18v696q0 17 18 17t18 -17v-696q0 -18 -18 -18t-18 18zM156 917l-95 -54q-4 -3 -9 -3q-8 0 -13.5 5.5t-5.5 12.5q0 9 8 13l102 60q4 2 7 2q16 0 16 -18q0 -12 -10 -18z" />
    <glyph glyph-name="Icircumflex" unicode="&#xce;" horiz-adv-x="200" 
d="M82 18v696q0 17 18 17t18 -17v-696q0 -18 -18 -18t-18 18zM100 918l-104 -56q-1 0 -4 -1.5t-4 -1.5q-7 0 -12.5 5.5t-5.5 13.5q0 10 9 14l104 56q8 5 17 5t17 -5l104 -55q9 -5 9 -17q0 -7 -5 -11.5t-12 -4.5l-9 3z" />
    <glyph glyph-name="Idieresis" unicode="&#xcf;" horiz-adv-x="200" 
d="M82 18v696q0 17 18 17t18 -17v-696q0 -18 -18 -18t-18 18zM59 962q10 0 18 -13t8 -30t-8 -30t-18 -13q-11 0 -19 13t-8 30t8 30t19 13zM142 962q10 0 18 -13t8 -30t-8 -30t-18 -13q-11 0 -19 13t-8 30t8 30t19 13z" />
    <glyph glyph-name="Eth" unicode="&#xd0;" horiz-adv-x="554" 
d="M3 384q0 18 17 18h240q7 0 12.5 -5.5t5.5 -12.5t-5.5 -12t-12.5 -5h-240q-17 0 -17 17zM111 731h177q89 0 142.5 -49.5t53.5 -156.5v-319q0 -107 -53.5 -156.5t-142.5 -49.5h-177q-18 0 -18 17v697q0 17 18 17zM288 695h-159v-659h159q77 0 118.5 42.5t41.5 127.5v319
q0 85 -41.5 127.5t-118.5 42.5z" />
    <glyph glyph-name="Ntilde" unicode="&#xd1;" horiz-adv-x="557" 
d="M132 695l306 -606v625q0 17 18 17t18 -17v-696q0 -18 -18 -18q-11 0 -29 36l-308 607v-625q0 -18 -18 -18t-18 18v696q0 17 18 17q11 0 31 -36zM347 912q20 0 32.5 8t19.5 16t13 8q14 0 14 -15q0 -21 -28.5 -36t-55.5 -15q-23 0 -61.5 18.5t-67.5 18.5q-19 0 -33 -9
t-22.5 -17.5t-13.5 -8.5q-13 0 -13 17q0 19 30.5 35.5t58.5 16.5q24 0 62.5 -18.5t64.5 -18.5z" />
    <glyph glyph-name="Ograve" unicode="&#xd2;" 
d="M265 -6q-89 0 -142 49.5t-53 156.5v325q0 107 53 156.5t142 49.5t142.5 -49.5t53.5 -156.5v-325q0 -107 -53.5 -156.5t-142.5 -49.5zM425 200v325q0 85 -41.5 127.5t-118.5 42.5t-118 -42.5t-41 -127.5v-325q0 -85 41 -127.5t118 -42.5t118.5 42.5t41.5 127.5zM304 863
l-95 54q-10 6 -10 18q0 18 16 18q3 0 7 -2l102 -60q8 -4 8 -13q0 -7 -5.5 -12.5t-13.5 -5.5q-4 0 -9 3z" />
    <glyph glyph-name="Oacute" unicode="&#xd3;" 
d="M265 -6q-89 0 -142 49.5t-53 156.5v325q0 107 53 156.5t142 49.5t142.5 -49.5t53.5 -156.5v-325q0 -107 -53.5 -156.5t-142.5 -49.5zM425 200v325q0 85 -41.5 127.5t-118.5 42.5t-118 -42.5t-41 -127.5v-325q0 -85 41 -127.5t118 -42.5t118.5 42.5t41.5 127.5zM322 917
l-95 -54q-4 -3 -9 -3q-8 0 -13.5 5.5t-5.5 12.5q0 9 8 13l102 60q4 2 7 2q16 0 16 -18q0 -12 -10 -18z" />
    <glyph glyph-name="Ocircumflex" unicode="&#xd4;" 
d="M265 -6q-89 0 -142 49.5t-53 156.5v325q0 107 53 156.5t142 49.5t142.5 -49.5t53.5 -156.5v-325q0 -107 -53.5 -156.5t-142.5 -49.5zM425 200v325q0 85 -41.5 127.5t-118.5 42.5t-118 -42.5t-41 -127.5v-325q0 -85 41 -127.5t118 -42.5t118.5 42.5t41.5 127.5zM265 918
l-104 -56q-1 0 -4 -1.5t-4 -1.5q-7 0 -12.5 5.5t-5.5 13.5q0 9 9 14l104 56q8 5 17 5t17 -5l104 -55q9 -4 9 -17q0 -7 -5 -11.5t-12 -4.5l-9 3z" />
    <glyph glyph-name="Otilde" unicode="&#xd5;" 
d="M265 -6q-89 0 -142 49.5t-53 156.5v325q0 107 53 156.5t142 49.5t142.5 -49.5t53.5 -156.5v-325q0 -107 -53.5 -156.5t-142.5 -49.5zM425 200v325q0 85 -41.5 127.5t-118.5 42.5t-118 -42.5t-41 -127.5v-325q0 -85 41 -127.5t118 -42.5t118.5 42.5t41.5 127.5zM334 912
q20 0 32.5 8t19.5 16t13 8q14 0 14 -15q0 -21 -28.5 -36t-55.5 -15q-23 0 -61.5 18.5t-67.5 18.5q-19 0 -33 -8.5t-22.5 -17.5t-13.5 -9q-13 0 -13 17q0 19 30.5 35.5t58.5 16.5q24 0 62.5 -18.5t64.5 -18.5z" />
    <glyph glyph-name="Odieresis" unicode="&#xd6;" 
d="M265 -6q-89 0 -142 49.5t-53 156.5v325q0 107 53 156.5t142 49.5t142.5 -49.5t53.5 -156.5v-325q0 -107 -53.5 -156.5t-142.5 -49.5zM425 200v325q0 85 -41.5 127.5t-118.5 42.5t-118 -42.5t-41 -127.5v-325q0 -85 41 -127.5t118 -42.5t118.5 42.5t41.5 127.5zM224 962
q10 0 18 -13t8 -30t-8 -30t-18 -13q-11 0 -19 13t-8 30t8 30t19 13zM307 962q10 0 18 -13t8 -30t-8 -30t-18 -13q-11 0 -19 13t-8 30t8 30t19 13z" />
    <glyph glyph-name="multiply" unicode="&#xd7;" horiz-adv-x="385" 
d="M323 292q0 -6 -5 -11.5t-12 -5.5t-12 5l-102 101l-101 -101q-5 -5 -12 -5t-12 5t-5 12t5 12l101 101l-101 101q-5 5 -5 13q0 7 5 12t12 5q8 0 13 -5l100 -101l101 101q5 5 13 5q7 0 12 -5t5 -12q0 -8 -5 -13l-101 -101l101 -101q5 -5 5 -12z" />
    <glyph glyph-name="Oslash" unicode="&#xd8;" 
d="M265 -6q-89 0 -142 49.5t-53 156.5v325q0 107 53 156.5t142 49.5t142.5 -49.5t53.5 -156.5v-325q0 -107 -53.5 -156.5t-142.5 -49.5zM425 200v325q0 85 -41.5 127.5t-118.5 42.5t-118 -42.5t-41 -127.5v-325q0 -85 41 -127.5t118 -42.5t118.5 42.5t41.5 127.5zM474 738
l-388 -747q-6 -11 -17 -11q-16 0 -16 15q0 6 2 9l391 756q4 8 13 8q6 0 12 -5.5t6 -13.5q0 -5 -3 -11z" />
    <glyph glyph-name="Ugrave" unicode="&#xd9;" horiz-adv-x="547" 
d="M78 200v514q0 17 18 17t18 -17v-514q0 -85 41 -127.5t118 -42.5t118.5 42.5t41.5 127.5v514q0 17 18 17t18 -17v-514q0 -107 -53.5 -156.5t-142.5 -49.5t-142 49.5t-53 156.5zM312 863l-95 54q-10 6 -10 18q0 18 16 18q3 0 7 -2l102 -60q8 -4 8 -13q0 -7 -5.5 -12.5
t-13.5 -5.5q-4 0 -9 3z" />
    <glyph glyph-name="Uacute" unicode="&#xda;" horiz-adv-x="547" 
d="M78 200v514q0 17 18 17t18 -17v-514q0 -85 41 -127.5t118 -42.5t118.5 42.5t41.5 127.5v514q0 17 18 17t18 -17v-514q0 -107 -53.5 -156.5t-142.5 -49.5t-142 49.5t-53 156.5zM330 917l-95 -54q-4 -3 -9 -3q-8 0 -13.5 5.5t-5.5 12.5q0 9 8 13l102 60q4 2 7 2
q16 0 16 -18q0 -12 -10 -18z" />
    <glyph glyph-name="Ucircumflex" unicode="&#xdb;" horiz-adv-x="547" 
d="M78 200v514q0 17 18 17t18 -17v-514q0 -85 41 -127.5t118 -42.5t118.5 42.5t41.5 127.5v514q0 17 18 17t18 -17v-514q0 -107 -53.5 -156.5t-142.5 -49.5t-142 49.5t-53 156.5zM273 918l-104 -56q-1 0 -4 -1.5t-4 -1.5q-7 0 -12.5 5.5t-5.5 13.5q0 9 9 14l104 56q8 5 17 5
t17 -5l104 -55q9 -4 9 -17q0 -7 -5 -11.5t-12 -4.5l-9 3z" />
    <glyph glyph-name="Udieresis" unicode="&#xdc;" horiz-adv-x="547" 
d="M78 200v514q0 17 18 17t18 -17v-514q0 -85 41 -127.5t118 -42.5t118.5 42.5t41.5 127.5v514q0 17 18 17t18 -17v-514q0 -107 -53.5 -156.5t-142.5 -49.5t-142 49.5t-53 156.5zM232 962q10 0 18 -13t8 -30t-8 -30t-18 -13q-11 0 -19 13t-8 30t8 30t19 13zM315 962
q10 0 18 -13t8 -30t-8 -30t-18 -13q-11 0 -19 13t-8 30t8 30t19 13z" />
    <glyph glyph-name="Yacute" unicode="&#xdd;" horiz-adv-x="511" 
d="M482 695l-208 -416q-1 -2 -1 -6v-255q0 -18 -18 -18t-18 18v255q0 4 -1 6l-207 416q-6 12 -6 20q0 16 13 16q12 0 20 -17l199 -401l200 401q9 17 20 17q12 0 12 -16q0 -10 -5 -20zM311 917l-95 -54q-4 -3 -9 -3q-8 0 -13.5 5.5t-5.5 12.5q0 9 8 13l102 60q4 2 7 2
q16 0 16 -18q0 -12 -10 -18z" />
    <glyph glyph-name="Thorn" unicode="&#xde;" horiz-adv-x="483" 
d="M83 18v697q0 16 17 16q18 0 18 -17v-172q43 76 143 76q70 0 120.5 -38.5t50.5 -106.5v-192q0 -68 -50.5 -107.5t-115.5 -39.5q-49 0 -92.5 22t-55.5 56v-194q0 -7 -5 -12.5t-12 -5.5t-12.5 5.5t-5.5 12.5zM263 169q54 0 94 29t40 83v192q0 53 -39.5 81.5t-94.5 28.5
q-59 0 -102 -31t-43 -79v-192q0 -42 42 -77t103 -35z" />
    <glyph glyph-name="germandbls" unicode="&#xdf;" horiz-adv-x="523" 
d="M318 -20q-33 0 -71 8.5t-38 27.5q0 7 4.5 12t10.5 5q2 0 28 -11t56 -11q66 0 104.5 47.5t38.5 137.5v19q0 39 -14 75.5t-54 67t-100 34.5q-17 1 -24 3.5t-7 12.5q0 17 32 20q97 6 97 149q0 74 -31.5 115t-91.5 41q-62 0 -90 -40.5t-28 -102.5v-573q0 -7 -5.5 -12
t-13.5 -5q-16 0 -16 17v420h-81q-17 0 -17 17q0 18 17 18h81v118q0 78 38 128t115 50q71 0 114.5 -45t43.5 -134q0 -59 -19 -109.5t-54 -66.5q52 -10 96 -68t44 -130v-19q0 -105 -48.5 -160.5t-116.5 -55.5z" />
    <glyph glyph-name="agrave" unicode="&#xe0;" horiz-adv-x="422" 
d="M87 472h93q92 0 135 -48.5t43 -128.5v-277q0 -18 -17 -18q-7 0 -12.5 5t-5.5 13v52q-66 -76 -150 -76q-62 0 -100.5 33.5t-38.5 98.5q0 75 59.5 103.5t173.5 28.5h56v37q0 61 -36.5 101.5t-106.5 40.5h-93q-7 0 -12.5 5.5t-5.5 12.5q0 17 18 17zM323 139v84h-55
q-45 0 -75.5 -3t-61.5 -12.5t-46.5 -30t-15.5 -51.5q0 -48 28.5 -72.5t74.5 -24.5q54 0 102.5 38t48.5 72zM234 604l-95 54q-10 6 -10 18q0 18 16 18q3 0 7 -2l102 -60q8 -4 8 -13q0 -7 -5.5 -12.5t-13.5 -5.5q-4 0 -9 3z" />
    <glyph glyph-name="aacute" unicode="&#xe1;" horiz-adv-x="422" 
d="M87 472h93q92 0 135 -48.5t43 -128.5v-277q0 -18 -17 -18q-7 0 -12.5 5t-5.5 13v52q-66 -76 -150 -76q-62 0 -100.5 33.5t-38.5 98.5q0 75 59.5 103.5t173.5 28.5h56v37q0 61 -36.5 101.5t-106.5 40.5h-93q-7 0 -12.5 5.5t-5.5 12.5q0 17 18 17zM323 139v84h-55
q-45 0 -75.5 -3t-61.5 -12.5t-46.5 -30t-15.5 -51.5q0 -48 28.5 -72.5t74.5 -24.5q54 0 102.5 38t48.5 72zM252 658l-95 -54q-5 -3 -9 -3q-8 0 -13.5 5.5t-5.5 12.5q0 9 8 13l102 60q4 2 7 2q16 0 16 -18q0 -12 -10 -18z" />
    <glyph glyph-name="acircumflex" unicode="&#xe2;" horiz-adv-x="422" 
d="M87 472h93q92 0 135 -48.5t43 -128.5v-277q0 -18 -17 -18q-7 0 -12.5 5t-5.5 13v52q-66 -76 -150 -76q-62 0 -100.5 33.5t-38.5 98.5q0 75 59.5 103.5t173.5 28.5h56v37q0 61 -36.5 101.5t-106.5 40.5h-93q-7 0 -12.5 5.5t-5.5 12.5q0 17 18 17zM323 139v84h-55
q-45 0 -75.5 -3t-61.5 -12.5t-46.5 -30t-15.5 -51.5q0 -48 28.5 -72.5t74.5 -24.5q54 0 102.5 38t48.5 72zM206 659l-104 -56q-1 0 -4 -1.5t-4 -1.5q-7 0 -12.5 5.5t-5.5 13.5q0 9 9 14l104 56q8 5 17 5t17 -5l104 -55q9 -4 9 -17q0 -7 -5 -11.5t-12 -4.5l-9 3z" />
    <glyph glyph-name="atilde" unicode="&#xe3;" horiz-adv-x="422" 
d="M87 472h93q92 0 135 -48.5t43 -128.5v-277q0 -18 -17 -18q-7 0 -12.5 5t-5.5 13v52q-66 -76 -150 -76q-62 0 -100.5 33.5t-38.5 98.5q0 75 59.5 103.5t173.5 28.5h56v37q0 61 -36.5 101.5t-106.5 40.5h-93q-7 0 -12.5 5.5t-5.5 12.5q0 17 18 17zM323 139v84h-55
q-45 0 -75.5 -3t-61.5 -12.5t-46.5 -30t-15.5 -51.5q0 -48 28.5 -72.5t74.5 -24.5q54 0 102.5 38t48.5 72zM264 653q20 0 32.5 8t19.5 16t13 8q14 0 14 -15q0 -21 -28.5 -36t-55.5 -15q-23 0 -61.5 18.5t-67.5 18.5q-19 0 -33 -9t-22.5 -17.5t-13.5 -8.5q-13 0 -13 17
q0 19 30.5 35.5t58.5 16.5q24 0 62.5 -18.5t64.5 -18.5z" />
    <glyph glyph-name="adieresis" unicode="&#xe4;" horiz-adv-x="422" 
d="M87 472h93q92 0 135 -48.5t43 -128.5v-277q0 -18 -17 -18q-7 0 -12.5 5t-5.5 13v52q-66 -76 -150 -76q-62 0 -100.5 33.5t-38.5 98.5q0 75 59.5 103.5t173.5 28.5h56v37q0 61 -36.5 101.5t-106.5 40.5h-93q-7 0 -12.5 5.5t-5.5 12.5q0 17 18 17zM323 139v84h-55
q-45 0 -75.5 -3t-61.5 -12.5t-46.5 -30t-15.5 -51.5q0 -48 28.5 -72.5t74.5 -24.5q54 0 102.5 38t48.5 72zM155 703q10 0 18 -13t8 -30t-8 -30t-18 -13q-11 0 -19 13t-8 30t8 30t19 13zM238 703q10 0 18 -13t8 -30t-8 -30t-18 -13q-11 0 -19 13t-8 30t8 30t19 13z" />
    <glyph glyph-name="aring" unicode="&#xe5;" horiz-adv-x="422" 
d="M87 472h93q92 0 135 -48.5t43 -128.5v-277q0 -18 -17 -18q-7 0 -12.5 5t-5.5 13v52q-66 -76 -150 -76q-62 0 -100.5 33.5t-38.5 98.5q0 75 59.5 103.5t173.5 28.5h56v37q0 61 -36.5 101.5t-106.5 40.5h-93q-7 0 -12.5 5.5t-5.5 12.5q0 17 18 17zM323 139v84h-55
q-45 0 -75.5 -3t-61.5 -12.5t-46.5 -30t-15.5 -51.5q0 -48 28.5 -72.5t74.5 -24.5q54 0 102.5 38t48.5 72zM206 768q32 0 57 -25t25 -58q0 -34 -25 -59.5t-57 -25.5q-33 0 -57.5 25.5t-24.5 59.5q0 33 24 58t58 25zM258 685q0 19 -15.5 35.5t-36.5 16.5q-22 0 -37.5 -16
t-15.5 -36q0 -22 15.5 -39t37.5 -17q21 0 36.5 17t15.5 39z" />
    <glyph glyph-name="ae" unicode="&#xe6;" horiz-adv-x="718" 
d="M501 478q72 0 124.5 -51.5t52.5 -126.5q0 -51 -13 -64t-70 -13h-235v-47q0 -68 46.5 -107.5t123.5 -39.5q35 0 55 8t47 28q7 5 12 5q7 0 13 -5t6 -13q0 -7 -5 -13q-14 -18 -58.5 -31.5t-85.5 -13.5q-57 0 -105 29t-70 78q-20 -55 -65.5 -81t-100.5 -26q-62 0 -100.5 33.5
t-38.5 98.5q0 75 59 103.5t172 28.5h56v42q0 59 -36.5 98t-104.5 39h-93q-7 0 -12.5 5.5t-5.5 12.5q0 17 18 17h93q124 0 162 -92q23 44 65.5 71t93.5 27zM360 258h223q40 0 50 7t10 30q0 57 -40 102.5t-102 45.5q-60 0 -100.5 -42t-40.5 -99v-44zM321 139v84h-55
q-45 0 -75.5 -3t-60.5 -12.5t-45.5 -30t-15.5 -51.5q0 -48 28.5 -72.5t74.5 -24.5q54 0 101.5 38t47.5 72z" />
    <glyph glyph-name="ccedilla" unicode="&#xe7;" horiz-adv-x="406" 
d="M234 -6q-90 0 -136.5 50t-46.5 132v120q0 81 46.5 131.5t136.5 50.5q59 0 98 -20t39 -39q0 -7 -6 -12t-12 -5t-19 10t-38.5 20.5t-61.5 10.5q-71 0 -109.5 -39t-38.5 -108v-120q0 -69 38.5 -108t110.5 -39q37 0 61.5 10.5t37 20.5t19.5 10t12.5 -5t5.5 -12
q0 -20 -39 -39.5t-98 -19.5zM340 -134q0 -75 -81 -75q-35 0 -75 14v35q36 -14 74 -14q49 0 49 41q0 21 -17 27.5t-50 6.5h-30v107h34v-72q21 0 33.5 -1.5t29.5 -7.5t25 -21.5t8 -39.5z" />
    <glyph glyph-name="egrave" unicode="&#xe8;" horiz-adv-x="444" 
d="M228 478q72 0 124.5 -51.5t52.5 -128.5q0 -26 -6 -42t-20 -23t-25.5 -8.5t-31.5 -1.5h-237v-47q0 -67 47 -107t122 -40q37 0 62 10.5t37.5 20.5t18.5 10q7 0 12.5 -6t5.5 -12q0 -10 -16 -23.5t-49 -24t-73 -10.5q-89 0 -145.5 50.5t-56.5 131.5v125q0 72 52.5 124.5
t125.5 52.5zM85 258h225q37 0 48.5 7t11.5 30q0 57 -40 102.5t-102 45.5q-60 0 -101.5 -42.5t-41.5 -99.5v-43zM266 604l-95 54q-10 6 -10 18q0 18 16 18q3 0 7 -2l102 -60q8 -4 8 -13q0 -7 -5.5 -12.5t-13.5 -5.5q-5 0 -9 3z" />
    <glyph glyph-name="eacute" unicode="&#xe9;" horiz-adv-x="444" 
d="M228 478q72 0 124.5 -51.5t52.5 -128.5q0 -26 -6 -42t-20 -23t-25.5 -8.5t-31.5 -1.5h-237v-47q0 -67 47 -107t122 -40q37 0 62 10.5t37.5 20.5t18.5 10q7 0 12.5 -6t5.5 -12q0 -10 -16 -23.5t-49 -24t-73 -10.5q-89 0 -145.5 50.5t-56.5 131.5v125q0 72 52.5 124.5
t125.5 52.5zM85 258h225q37 0 48.5 7t11.5 30q0 57 -40 102.5t-102 45.5q-60 0 -101.5 -42.5t-41.5 -99.5v-43zM284 658l-95 -54q-4 -3 -9 -3q-8 0 -13.5 5.5t-5.5 12.5q0 9 8 13l102 60q4 2 7 2q16 0 16 -18q0 -12 -10 -18z" />
    <glyph glyph-name="ecircumflex" unicode="&#xea;" horiz-adv-x="444" 
d="M228 478q72 0 124.5 -51.5t52.5 -128.5q0 -26 -6 -42t-20 -23t-25.5 -8.5t-31.5 -1.5h-237v-47q0 -67 47 -107t122 -40q37 0 62 10.5t37.5 20.5t18.5 10q7 0 12.5 -6t5.5 -12q0 -10 -16 -23.5t-49 -24t-73 -10.5q-89 0 -145.5 50.5t-56.5 131.5v125q0 72 52.5 124.5
t125.5 52.5zM85 258h225q37 0 48.5 7t11.5 30q0 57 -40 102.5t-102 45.5q-60 0 -101.5 -42.5t-41.5 -99.5v-43zM227 659l-104 -56q-1 0 -4 -1.5t-4 -1.5q-7 0 -12.5 5.5t-5.5 13.5q0 9 9 14l104 56q8 5 17 5t17 -5l104 -55q9 -4 9 -17q0 -7 -5 -11.5t-12 -4.5l-9 3z" />
    <glyph glyph-name="edieresis" unicode="&#xeb;" horiz-adv-x="444" 
d="M228 478q72 0 124.5 -51.5t52.5 -128.5q0 -26 -6 -42t-20 -23t-25.5 -8.5t-31.5 -1.5h-237v-47q0 -67 47 -107t122 -40q37 0 62 10.5t37.5 20.5t18.5 10q7 0 12.5 -6t5.5 -12q0 -10 -16 -23.5t-49 -24t-73 -10.5q-89 0 -145.5 50.5t-56.5 131.5v125q0 72 52.5 124.5
t125.5 52.5zM85 258h225q37 0 48.5 7t11.5 30q0 57 -40 102.5t-102 45.5q-60 0 -101.5 -42.5t-41.5 -99.5v-43zM186 703q10 0 18 -13t8 -30t-8 -30t-18 -13q-11 0 -19 13t-8 30t8 30t19 13zM269 703q10 0 18 -13t8 -30t-8 -30t-18 -13q-11 0 -19 13t-8 30t8 30t19 13z" />
    <glyph glyph-name="igrave" unicode="&#xec;" horiz-adv-x="173" 
d="M86 472q18 0 18 -17v-437q0 -7 -5.5 -12.5t-12.5 -5.5t-12 5.5t-5 12.5v437q0 7 5 12t12 5zM124 604l-95 54q-10 6 -10 18q0 18 16 18q3 0 7 -2l102 -60q8 -4 8 -13q0 -7 -5.5 -12.5t-13.5 -5.5q-5 0 -9 3z" />
    <glyph glyph-name="iacute" unicode="&#xed;" horiz-adv-x="173" 
d="M86 472q18 0 18 -17v-437q0 -7 -5.5 -12.5t-12.5 -5.5t-12 5.5t-5 12.5v437q0 7 5 12t12 5zM142 658l-95 -54q-4 -3 -9 -3q-8 0 -13.5 5.5t-5.5 12.5q0 9 8 13l102 60q4 2 7 2q16 0 16 -18q0 -12 -10 -18z" />
    <glyph glyph-name="icircumflex" unicode="&#xee;" horiz-adv-x="173" 
d="M86 472q18 0 18 -17v-437q0 -7 -5.5 -12.5t-12.5 -5.5t-12 5.5t-5 12.5v437q0 7 5 12t12 5zM86 659l-104 -56q-1 0 -4 -1.5t-4 -1.5q-7 0 -12.5 5.5t-5.5 13.5q0 9 9 14l104 56q8 5 17 5t17 -5l104 -55q9 -4 9 -17q0 -7 -5 -11.5t-12 -4.5l-9 3z" />
    <glyph glyph-name="idieresis" unicode="&#xef;" horiz-adv-x="173" 
d="M86 472q18 0 18 -17v-437q0 -7 -5.5 -12.5t-12.5 -5.5t-12 5.5t-5 12.5v437q0 7 5 12t12 5zM44 703q10 0 18 -13t8 -30t-8 -30t-18 -13q-11 0 -19 13t-8 30t8 30t19 13zM127 703q10 0 18 -13t8 -30t-8 -30t-18 -13q-11 0 -19 13t-8 30t8 30t19 13z" />
    <glyph glyph-name="eth" unicode="&#xf0;" horiz-adv-x="467" 
d="M127 731q-12 0 -12 17q0 20 24 20q81 0 157 -85l80 46q4 2 7 2q7 0 12.5 -5t5.5 -12q0 -10 -9 -15l-74 -43q87 -117 87 -291v-189q0 -72 -53.5 -127t-124.5 -55t-124 55t-53 127v122q0 72 52.5 126t124.5 54q46 0 88.5 -23.5t54.5 -62.5q-14 153 -83 246l-98 -56
q-5 -3 -9 -3q-7 0 -12 6t-5 13q0 10 9 14l92 53q-63 66 -137 66zM370 176v127q0 54 -42.5 97t-100.5 43q-59 0 -100.5 -44.5t-41.5 -100.5v-122q0 -57 42 -102t100 -45t100.5 45t42.5 102z" />
    <glyph glyph-name="ntilde" unicode="&#xf1;" horiz-adv-x="477" 
d="M238 478q73 0 125.5 -54t52.5 -126v-280q0 -7 -5.5 -12.5t-12.5 -5.5t-12 5.5t-5 12.5v280q0 57 -42 101t-101 44q-58 0 -100 -44t-42 -101v-281q0 -7 -5.5 -12t-12.5 -5t-12 5t-5 12v281q0 72 52.5 126t124.5 54zM307 653q20 0 32.5 8t19.5 16t13 8q14 0 14 -15
q0 -21 -28.5 -36t-55.5 -15q-23 0 -61.5 18.5t-67.5 18.5q-19 0 -33 -9t-22.5 -17.5t-13.5 -8.5q-13 0 -13 17q0 19 30.5 35.5t58.5 16.5q24 0 62.5 -18.5t64.5 -18.5z" />
    <glyph glyph-name="ograve" unicode="&#xf2;" horiz-adv-x="455" 
d="M227 478q72 0 125 -53t53 -127v-122q0 -72 -53.5 -127t-124.5 -55t-124 55t-53 127v122q0 72 52.5 126t124.5 54zM370 176v122q0 56 -42 100.5t-101 44.5t-100.5 -44.5t-41.5 -100.5v-122q0 -57 42 -102t100 -45t100.5 45t42.5 102zM266 604l-95 54q-10 6 -10 18
q0 18 16 18q3 0 7 -2l102 -60q8 -4 8 -13q0 -7 -5.5 -12.5t-13.5 -5.5q-4 0 -9 3z" />
    <glyph glyph-name="oacute" unicode="&#xf3;" horiz-adv-x="455" 
d="M227 478q72 0 125 -53t53 -127v-122q0 -72 -53.5 -127t-124.5 -55t-124 55t-53 127v122q0 72 52.5 126t124.5 54zM370 176v122q0 56 -42 100.5t-101 44.5t-100.5 -44.5t-41.5 -100.5v-122q0 -57 42 -102t100 -45t100.5 45t42.5 102zM284 658l-95 -54q-4 -3 -9 -3
q-8 0 -13.5 5.5t-5.5 12.5q0 9 8 13l102 60q4 2 7 2q16 0 16 -18q0 -12 -10 -18z" />
    <glyph glyph-name="ocircumflex" unicode="&#xf4;" horiz-adv-x="455" 
d="M227 478q72 0 125 -53t53 -127v-122q0 -72 -53.5 -127t-124.5 -55t-124 55t-53 127v122q0 72 52.5 126t124.5 54zM370 176v122q0 56 -42 100.5t-101 44.5t-100.5 -44.5t-41.5 -100.5v-122q0 -57 42 -102t100 -45t100.5 45t42.5 102zM227 659l-104 -56q-1 0 -4 -1.5
t-4 -1.5q-7 0 -12.5 5.5t-5.5 13.5q0 9 9 14l104 56q8 5 17 5t17 -5l104 -55q9 -4 9 -17q0 -7 -5 -11.5t-12 -4.5l-9 3z" />
    <glyph glyph-name="otilde" unicode="&#xf5;" horiz-adv-x="455" 
d="M227 478q72 0 125 -53t53 -127v-122q0 -72 -53.5 -127t-124.5 -55t-124 55t-53 127v122q0 72 52.5 126t124.5 54zM370 176v122q0 56 -42 100.5t-101 44.5t-100.5 -44.5t-41.5 -100.5v-122q0 -57 42 -102t100 -45t100.5 45t42.5 102zM296 653q20 0 32.5 8t19.5 16t13 8
q14 0 14 -15q0 -21 -28.5 -36t-55.5 -15q-23 0 -61.5 18.5t-67.5 18.5q-19 0 -33 -9t-22.5 -17.5t-13.5 -8.5q-13 0 -13 17q0 19 30.5 35.5t58.5 16.5q24 0 62.5 -18.5t64.5 -18.5z" />
    <glyph glyph-name="odieresis" unicode="&#xf6;" horiz-adv-x="455" 
d="M227 478q72 0 125 -53t53 -127v-122q0 -72 -53.5 -127t-124.5 -55t-124 55t-53 127v122q0 72 52.5 126t124.5 54zM370 176v122q0 56 -42 100.5t-101 44.5t-100.5 -44.5t-41.5 -100.5v-122q0 -57 42 -102t100 -45t100.5 45t42.5 102zM186 703q10 0 18 -13t8 -30t-8 -30
t-18 -13q-11 0 -19 13t-8 30t8 30t19 13zM269 703q10 0 18 -13t8 -30t-8 -30t-18 -13q-11 0 -19 13t-8 30t8 30t19 13z" />
    <glyph glyph-name="divide" unicode="&#xf7;" horiz-adv-x="453" 
d="M223 288q17 0 30 -13t13 -30t-13 -30t-30 -13q-18 0 -31 13t-13 30t13 30t31 13zM223 609q17 0 30 -13t13 -30t-13 -30t-30 -13q-18 0 -31 13t-13 30t13 30t31 13zM49 405q0 18 17 18h320q7 0 12.5 -5.5t5.5 -12.5t-5.5 -12t-12.5 -5h-320q-17 0 -17 17z" />
    <glyph glyph-name="oslash" unicode="&#xf8;" horiz-adv-x="455" 
d="M369 479l-258 -500q-5 -11 -17 -11q-16 0 -16 15q0 6 2 9l261 509q4 8 13 8q6 0 12 -5.5t6 -13.5q0 -5 -3 -11zM227 478q72 0 125 -53t53 -127v-122q0 -72 -53.5 -127t-124.5 -55t-124 55t-53 127v122q0 72 52.5 126t124.5 54zM370 176v122q0 56 -42 100.5t-101 44.5
t-100.5 -44.5t-41.5 -100.5v-122q0 -57 42 -102t100 -45t100.5 45t42.5 102z" />
    <glyph glyph-name="ugrave" unicode="&#xf9;" horiz-adv-x="478" 
d="M239 -6q-73 0 -125.5 54t-52.5 126v280q0 7 5.5 12.5t12.5 5.5t12 -5.5t5 -12.5v-280q0 -57 42 -101t101 -44q58 0 100 44t42 101v281q0 7 5.5 12t12.5 5t12 -5t5 -12v-281q0 -72 -52.5 -126t-124.5 -54zM277 604l-95 54q-10 6 -10 18q0 18 16 18q3 0 7 -2l102 -60
q8 -4 8 -13q0 -7 -5.5 -12.5t-13.5 -5.5q-4 0 -9 3z" />
    <glyph glyph-name="uacute" unicode="&#xfa;" horiz-adv-x="478" 
d="M239 -6q-73 0 -125.5 54t-52.5 126v280q0 7 5.5 12.5t12.5 5.5t12 -5.5t5 -12.5v-280q0 -57 42 -101t101 -44q58 0 100 44t42 101v281q0 7 5.5 12t12.5 5t12 -5t5 -12v-281q0 -72 -52.5 -126t-124.5 -54zM295 658l-95 -54q-4 -3 -9 -3q-8 0 -13.5 5.5t-5.5 12.5q0 9 8 13
l102 60q4 2 7 2q16 0 16 -18q0 -12 -10 -18z" />
    <glyph glyph-name="ucircumflex" unicode="&#xfb;" horiz-adv-x="478" 
d="M239 -6q-73 0 -125.5 54t-52.5 126v280q0 7 5.5 12.5t12.5 5.5t12 -5.5t5 -12.5v-280q0 -57 42 -101t101 -44q58 0 100 44t42 101v281q0 7 5.5 12t12.5 5t12 -5t5 -12v-281q0 -72 -52.5 -126t-124.5 -54zM238 659l-104 -56q-1 0 -4 -1.5t-4 -1.5q-7 0 -12.5 5.5
t-5.5 13.5q0 9 9 14l104 56q8 5 17 5t17 -5l104 -55q9 -4 9 -17q0 -7 -5 -11.5t-12 -4.5l-9 3z" />
    <glyph glyph-name="udieresis" unicode="&#xfc;" horiz-adv-x="478" 
d="M239 -6q-73 0 -125.5 54t-52.5 126v280q0 7 5.5 12.5t12.5 5.5t12 -5.5t5 -12.5v-280q0 -57 42 -101t101 -44q58 0 100 44t42 101v281q0 7 5.5 12t12.5 5t12 -5t5 -12v-281q0 -72 -52.5 -126t-124.5 -54zM197 703q10 0 18 -13t8 -30t-8 -30t-18 -13q-11 0 -19 13t-8 30
t8 30t19 13zM280 703q10 0 18 -13t8 -30t-8 -30t-18 -13q-11 0 -19 13t-8 30t8 30t19 13z" />
    <glyph glyph-name="yacute" unicode="&#xfd;" horiz-adv-x="393" 
d="M357 478q18 0 18 -17q0 -4 -1 -6l-160 -442l-20 -55q-6 -16 -21.5 -53t-28 -56t-30 -42t-37.5 -33.5t-42 -10.5q-7 0 -12 5t-5 12q0 18 15 18q17 0 33 8t30 27.5t23.5 34.5t23 48t18.5 46l18 51l-160 442q-2 4 -2 6q0 7 5.5 12t13.5 5q13 0 16 -11l145 -400l144 400
q5 11 16 11zM252 658l-95 -54q-4 -3 -9 -3q-8 0 -13.5 5.5t-5.5 12.5q0 9 8 13l102 60q4 2 7 2q16 0 16 -18q0 -12 -10 -18z" />
    <glyph glyph-name="thorn" unicode="&#xfe;" horiz-adv-x="471" 
d="M69 -135v720q0 16 17 16q18 0 18 -17v-182q43 76 143 76q70 0 120.5 -38.5t50.5 -106.5v-192q0 -68 -50.5 -107.5t-115.5 -39.5q-49 0 -92.5 22t-55.5 56v-207q0 -7 -5 -12.5t-12 -5.5t-12.5 5.5t-5.5 12.5zM249 29q54 0 94 29t40 83v192q0 53 -39.5 81.5t-94.5 28.5
q-59 0 -102 -31t-43 -79v-192q0 -42 42 -77t103 -35z" />
    <glyph glyph-name="ydieresis" unicode="&#xff;" horiz-adv-x="393" 
d="M357 478q18 0 18 -17q0 -4 -1 -6l-160 -442l-20 -55q-6 -16 -21.5 -53t-28 -56t-30 -42t-37.5 -33.5t-42 -10.5q-7 0 -12 5t-5 12q0 18 15 18q17 0 33 8t30 27.5t23.5 34.5t23 48t18.5 46l18 51l-160 442q-2 4 -2 6q0 7 5.5 12t13.5 5q13 0 16 -11l145 -400l144 400
q5 11 16 11zM155 703q10 0 18 -13t8 -30t-8 -30t-18 -13q-11 0 -19 13t-8 30t8 30t19 13zM238 703q10 0 18 -13t8 -30t-8 -30t-18 -13q-11 0 -19 13t-8 30t8 30t19 13z" />
    <glyph glyph-name="Ncaron" unicode="&#x147;" horiz-adv-x="557" 
d="M132 695l306 -606v625q0 17 18 17t18 -17v-696q0 -18 -18 -18q-11 0 -29 36l-308 607v-625q0 -18 -18 -18t-18 18v696q0 17 18 17q11 0 31 -36zM256 849l-110 101q-9 9 -9 17q0 14 14 14q10 0 18 -8l108 -100l108 100q8 8 18 8q14 0 14 -14q0 -8 -9 -17l-110 -101
q-11 -9 -21 -9t-21 9z" />
    <glyph glyph-name="OE" unicode="&#x152;" horiz-adv-x="841" 
d="M460 695v-311h160q17 0 17 -19q0 -17 -17 -17h-160v-312h338q17 0 17 -19q0 -17 -17 -17h-354q-18 0 -18 18v48q-49 -72 -161 -72q-89 0 -142 49.5t-53 156.5v325q0 107 53 156.5t142 49.5q112 0 161 -72v54q0 18 18 18h354q17 0 17 -17q0 -19 -17 -19h-338zM425 200v325
q0 85 -41.5 127.5t-118.5 42.5t-118 -42.5t-41 -127.5v-325q0 -85 41 -127.5t118 -42.5t118.5 42.5t41.5 127.5z" />
    <glyph glyph-name="oe" unicode="&#x153;" horiz-adv-x="764" 
d="M227 478q50 0 93.5 -28.5t66.5 -74.5q21 46 65 74.5t96 28.5q72 0 124.5 -51.5t52.5 -126.5q0 -27 -6 -43.5t-19.5 -23.5t-25 -8.5t-32.5 -1.5h-237v-47q0 -68 47.5 -107.5t124.5 -39.5q36 0 59.5 10.5t35.5 20.5t19 10q19 0 19 -20q0 -16 -42 -36t-97 -20
q-65 0 -113.5 28t-71.5 76q-22 -46 -65.5 -75t-93.5 -29q-71 0 -124 55t-53 127v122q0 72 52.5 126t124.5 54zM370 176v122q0 56 -42 100.5t-101 44.5t-100.5 -44.5t-41.5 -100.5v-122q0 -57 42 -102t100 -45t100.5 45t42.5 102zM405 258h225q37 0 48.5 7t11.5 30
q0 57 -40 102.5t-102 45.5q-59 0 -101 -41.5t-42 -96.5v-47z" />
    <glyph glyph-name="Scaron" unicode="&#x160;" horiz-adv-x="486" 
d="M400 192q0 48 -18.5 83.5t-48.5 55.5q-29 19 -65 35l-72 30q-36 14 -66 32.5t-48.5 50t-18.5 75.5q0 53 17 90.5t45 55t55.5 24.5t58.5 7q88 0 133.5 -47t45.5 -118q0 -20 -18 -20q-20 0 -20 30q0 19 -5.5 37t-18.5 38t-42.5 32t-71.5 12q-26 0 -48.5 -6t-45 -20.5
t-36 -44t-13.5 -70.5q0 -36 18.5 -62t48.5 -42t66 -29.5t71.5 -30.5t65.5 -39t48.5 -60.5t18.5 -90.5q0 -107 -53 -156.5t-141 -49.5q-87 0 -142 47.5t-55 117.5q0 20 19 20q13 0 17 -18q6 -26 12 -42.5t22 -40t46.5 -36t74.5 -12.5q79 0 121.5 41.5t42.5 120.5zM218 849
l-110 101q-9 9 -9 17q0 14 14 14q10 0 18 -8l108 -100l108 100q8 8 18 8q14 0 14 -14q0 -8 -9 -17l-110 -101q-11 -9 -21 -9t-21 9z" />
    <glyph glyph-name="scaron" unicode="&#x161;" horiz-adv-x="388" 
d="M198 443q-57 0 -85 -29.5t-28 -64.5q0 -31 27 -52t65.5 -35t77 -29.5t65.5 -45.5t27 -74q0 -55 -40 -87t-110 -32q-79 0 -118.5 35t-39.5 85q0 24 18 24q17 0 17 -25q0 -32 30 -58t92 -26q59 0 87.5 23.5t28.5 60.5q0 34 -27 57.5t-65 37.5l-78 30q-38 16 -65 44t-27 68
q0 49 37.5 88.5t108.5 39.5q66 0 103 -34.5t37 -87.5q0 -26 -17 -26q-18 0 -18 25q-2 88 -103 88zM171 590l-110 101q-9 9 -9 17q0 14 14 14q10 0 18 -8l108 -100l108 100q8 8 18 8q14 0 14 -14q0 -8 -9 -17l-110 -101q-11 -9 -21 -9t-21 9z" />
    <glyph glyph-name="wcircumflex" unicode="&#x175;" horiz-adv-x="653" 
d="M616 472q18 0 18 -17q0 -6 -4 -14l-157 -435q-4 -12 -15 -12q-8 0 -14 11l-117 375l-115 -369q-6 -17 -17 -17q-7 0 -10 3t-7 14l-156 430q-4 8 -4 13q0 8 5 13t13 5q12 0 17 -11l141 -391l115 362q5 13 18 13t18 -13l111 -367l144 396q3 11 16 11zM326 659l-104 -56
q-1 0 -4 -1.5t-4 -1.5q-7 0 -12.5 5.5t-5.5 13.5q0 9 9 14l104 56q8 5 17 5t17 -5l104 -55q9 -4 9 -17q0 -7 -5 -11.5t-12 -4.5l-9 3z" />
    <glyph glyph-name="Ycircumflex" unicode="&#x176;" horiz-adv-x="511" 
d="M482 695l-208 -416q-1 -2 -1 -6v-255q0 -18 -18 -18t-18 18v255q0 4 -1 6l-207 416q-6 12 -6 20q0 16 13 16q12 0 20 -17l199 -401l200 401q9 17 20 17q12 0 12 -16q0 -10 -5 -20zM255 918l-104 -56q-1 0 -4 -1.5t-4 -1.5q-7 0 -12.5 5.5t-5.5 13.5q0 10 9 14l104 56
q8 5 17 5t17 -5l104 -55q9 -5 9 -17q0 -7 -5 -11.5t-12 -4.5l-9 3z" />
    <glyph glyph-name="Ydieresis" unicode="&#x178;" horiz-adv-x="511" 
d="M482 695l-208 -416q-1 -2 -1 -6v-255q0 -18 -18 -18t-18 18v255q0 4 -1 6l-207 416q-6 12 -6 20q0 16 13 16q12 0 20 -17l199 -401l200 401q9 17 20 17q12 0 12 -16q0 -10 -5 -20zM214 962q10 0 18 -13t8 -30t-8 -30t-18 -13q-11 0 -19 13t-8 30t8 30t19 13zM297 962
q10 0 18 -13t8 -30t-8 -30t-18 -13q-11 0 -19 13t-8 30t8 30t19 13z" />
    <glyph glyph-name="Zcaron" unicode="&#x17d;" horiz-adv-x="454" 
d="M405 0h-355q-8 0 -13 5t-5 13q0 5 3 11l340 666h-325q-18 0 -18 18t18 18h355q18 0 18 -14q0 -7 -5 -17l-339 -664h326q18 0 18 -18t-18 -18zM205 849l-110 101q-9 9 -9 17q0 14 14 14q10 0 18 -8l108 -100l108 100q8 8 18 8q14 0 14 -14q0 -8 -9 -17l-110 -101
q-11 -9 -21 -9t-21 9z" />
    <glyph glyph-name="zcaron" unicode="&#x17e;" horiz-adv-x="383" 
d="M82 35h253q7 0 12.5 -5.5t5.5 -12.5t-5.5 -12t-12.5 -5h-287q-18 0 -18 16q0 8 4 12l267 409h-253q-7 0 -12.5 5t-5.5 12q0 8 5 13t13 5h287q7 0 12.5 -5t5.5 -13q0 -6 -3 -10zM169 590l-110 101q-9 9 -9 17q0 14 14 14q10 0 18 -8l108 -100l108 100q8 8 18 8
q14 0 14 -14q0 -8 -9 -17l-110 -101q-11 -9 -21 -9t-21 9z" />
    <glyph glyph-name="florin" unicode="&#x192;" horiz-adv-x="324" 
d="M163 590l-27 -188h153q16 0 16 -15q0 -8 -6.5 -14t-14.5 -6h-153l-44 -315q-27 -189 -128 -189h-20q-16 0 -16 16q0 8 6.5 13.5t14.5 5.5h20q66 0 88 154l76 538q10 72 70.5 125t132.5 53h4q15 0 15 -16q0 -8 -6 -13.5t-14 -5.5h-4q-59 0 -107 -43t-56 -100z" />
    <glyph glyph-name="circumflex" unicode="&#x2c6;" horiz-adv-x="260" 
d="M130 659l-104 -56q-1 0 -4 -1.5t-4 -1.5q-7 0 -12.5 5.5t-5.5 13.5q0 9 9 14l104 56q8 5 17 5t17 -5l104 -55q9 -4 9 -17q0 -7 -5 -11.5t-12 -4.5l-9 3z" />
    <glyph glyph-name="tilde" unicode="&#x2dc;" horiz-adv-x="295" 
d="M216 653q20 0 32.5 8t19.5 16t13 8q14 0 14 -15q0 -21 -28.5 -36t-55.5 -15q-23 0 -61.5 18.5t-67.5 18.5q-19 0 -33 -9t-22.5 -17.5t-13.5 -8.5q-13 0 -13 17q0 19 30.5 35.5t58.5 16.5q24 0 62.5 -18.5t64.5 -18.5z" />
    <glyph glyph-name="endash" unicode="&#x2013;" horiz-adv-x="478" 
d="M62 240q0 18 17 18h320q7 0 12.5 -5.5t5.5 -12.5t-5.5 -12t-12.5 -5h-320q-17 0 -17 17z" />
    <glyph glyph-name="emdash" unicode="&#x2014;" horiz-adv-x="758" 
d="M62 240q0 18 17 18h600q7 0 12.5 -5.5t5.5 -12.5t-5.5 -12t-12.5 -5h-600q-17 0 -17 17z" />
    <glyph glyph-name="quoteleft" unicode="&#x2018;" horiz-adv-x="151" 
d="M79 544q-40 0 -40 55q0 40 13.5 86t29.5 46q9 0 9 -14q0 -7 -8 -33.5t-8 -62.5q43 0 43 -35q0 -42 -39 -42z" />
    <glyph glyph-name="quoteright" unicode="&#x2019;" horiz-adv-x="149" 
d="M71 731q40 0 40 -55q0 -40 -13.5 -86t-29.5 -46q-9 0 -9 14q0 7 8 33.5t8 62.5q-43 0 -43 35q0 42 39 42z" />
    <glyph glyph-name="quotesinglbase" unicode="&#x201a;" horiz-adv-x="176" 
d="M88 80q17 0 30 -12t13 -39q0 -31 -17 -66t-31 -35q-12 0 -12 16q0 3 16 50q-18 1 -30.5 13.5t-12.5 29.5t13 30t31 13z" />
    <glyph glyph-name="quotedblleft" unicode="&#x201c;" horiz-adv-x="281" 
d="M209 544q-40 0 -40 55q0 40 13.5 86t29.5 46q9 0 9 -14q0 -7 -8 -33.5t-8 -62.5q43 0 43 -35q0 -42 -39 -42zM79 544q-40 0 -40 55q0 40 13.5 86t29.5 46q9 0 9 -14q0 -7 -8 -33.5t-8 -62.5q43 0 43 -35q0 -42 -39 -42z" />
    <glyph glyph-name="quotedblright" unicode="&#x201d;" horiz-adv-x="281" 
d="M72 544q-39 0 -39 42q0 35 43 35q0 36 -8 62.5t-8 33.5q0 14 9 14q16 0 29.5 -46t13.5 -86q0 -55 -40 -55zM202 544q-39 0 -39 42q0 35 43 35q0 36 -8 62.5t-8 33.5q0 14 9 14q16 0 29.5 -46t13.5 -86q0 -55 -40 -55z" />
    <glyph glyph-name="quotedblbase" unicode="&#x201e;" horiz-adv-x="316" 
d="M88 80q17 0 30 -12t13 -39q0 -31 -17 -66t-31 -35q-12 0 -12 16q0 3 1 5l15 45q-18 1 -30.5 13.5t-12.5 29.5t13 30t31 13zM228 80q17 0 30 -12t13 -39q0 -31 -17 -66t-31 -35q-12 0 -12 16q0 3 1 5l15 45q-18 1 -30.5 13.5t-12.5 29.5t13 30t31 13z" />
    <glyph glyph-name="dagger" unicode="&#x2020;" horiz-adv-x="403" 
d="M24 454q0 18 17 18l142 -6v248q0 7 5.5 12t12.5 5t12.5 -5t5.5 -12v-248l142 6q7 0 12.5 -5.5t5.5 -12.5t-5.5 -12t-12.5 -5l-142 6v-447q0 -7 -5.5 -12t-12.5 -5t-12.5 5t-5.5 12v447l-142 -6q-17 0 -17 17z" />
    <glyph glyph-name="daggerdbl" unicode="&#x2021;" horiz-adv-x="438" 
d="M42 454q0 18 17 18l142 -6v248q0 7 5.5 12t12.5 5t12.5 -5t5.5 -12v-248l142 6q7 0 12.5 -5.5t5.5 -12.5t-5.5 -12t-12.5 -5l-142 6v-191l142 6q7 0 12.5 -5t5.5 -12t-5.5 -12.5t-12.5 -5.5l-142 6v-233q0 -7 -5.5 -12t-12.5 -5t-12.5 5t-5.5 12v233l-142 -6
q-17 0 -17 18q0 17 17 17l142 -6v191l-142 -6q-17 0 -17 17z" />
    <glyph glyph-name="bullet" unicode="&#x2022;" horiz-adv-x="247" 
d="M124 377q31 0 54.5 -23t23.5 -54t-23.5 -54t-54.5 -23q-32 0 -55.5 23t-23.5 54t23.5 54t55.5 23z" />
    <glyph glyph-name="ellipsis" unicode="&#x2026;" horiz-adv-x="529" 
d="M88 80q17 0 30 -13t13 -30t-13 -30t-30 -13q-18 0 -31 13t-13 30t13 30t31 13zM265 80q17 0 30 -13t13 -30t-13 -30t-30 -13q-18 0 -31 13t-13 30t13 30t31 13zM442 80q17 0 30 -13t13 -30t-13 -30t-30 -13q-18 0 -31 13t-13 30t13 30t31 13z" />
    <glyph glyph-name="perthousand" unicode="&#x2030;" horiz-adv-x="1109" 
d="M570 373q71 0 111.5 -44.5t40.5 -119.5v-45q0 -73 -41 -119.5t-111 -46.5t-110.5 46t-40.5 120v45q0 74 40 119t111 45zM687 164v45q0 58 -29.5 93.5t-87.5 35.5q-57 0 -86.5 -35.5t-29.5 -93.5v-44q0 -59 29.5 -95.5t87.5 -36.5q56 0 86 36t30 95zM189 731
q71 0 111.5 -44.5t40.5 -119.5v-45q0 -73 -41 -119.5t-111 -46.5t-110.5 46t-40.5 120v45q0 74 40 119t111 45zM306 522v45q0 58 -29.5 93.5t-87.5 35.5q-57 0 -86.5 -35.5t-29.5 -93.5v-44q0 -59 29.5 -95.5t87.5 -36.5q56 0 86 36t30 95zM921 373q71 0 111.5 -44.5
t40.5 -119.5v-45q0 -73 -41 -119.5t-111 -46.5t-110.5 46t-40.5 120v45q0 74 40 119t111 45zM1038 164v45q0 58 -29.5 93.5t-87.5 35.5q-57 0 -86.5 -35.5t-29.5 -93.5v-44q0 -59 29.5 -95.5t87.5 -36.5q56 0 86 36t30 95zM237 -20q-7 0 -12.5 5t-5.5 12q0 4 1 6l275 754
q3 11 16 11q8 0 13.5 -5t5.5 -12q0 -5 -3 -11l-273 -749q-3 -11 -17 -11z" />
    <glyph glyph-name="guilsinglleft" unicode="&#x2039;" horiz-adv-x="215" 
d="M136 83l-96 177q-5 8 -5 17t5 17l96 178q4 9 17 9q7 0 11.5 -5t4.5 -12q0 -4 -3 -9l-96 -178l96 -177q3 -4 3 -9q0 -7 -5.5 -12t-12.5 -5q-10 0 -15 9z" />
    <glyph glyph-name="guilsinglright" unicode="&#x203a;" horiz-adv-x="215" 
d="M175 260l-96 -177q-5 -9 -15 -9q-7 0 -12.5 5t-5.5 12q0 5 3 9l96 177l-96 178q-3 5 -3 9q0 7 4.5 12t11.5 5q12 0 17 -9l96 -178q5 -8 5 -17t-5 -17z" />
    <glyph glyph-name="Euro" unicode="&#x20ac;" horiz-adv-x="565" 
d="M37 424q0 18 17 18h70v83q0 107 53 156.5t142 49.5t139.5 -46t56.5 -119q0 -20 -18 -20q-17 0 -18 18q-9 66 -50.5 98.5t-109.5 32.5q-77 0 -118 -42.5t-41 -127.5v-83h204q7 0 12.5 -5.5t5.5 -12.5t-5.5 -12t-12.5 -5h-204v-108h204q7 0 12.5 -5.5t5.5 -12.5t-5.5 -12
t-12.5 -5h-204v-64q0 -85 41 -127.5t118 -42.5q68 0 109.5 32.5t50.5 98.5q1 18 18 18q18 0 18 -20q-6 -73 -56.5 -119t-139.5 -46t-142 49.5t-53 156.5v64h-70q-17 0 -17 17q0 18 17 18h70v108h-70q-17 0 -17 17z" />
    <glyph glyph-name="trademark" unicode="&#x2122;" 
d="M107 736h-56q-7 0 -12 5t-5 11t5 11t12 5h145q17 0 17 -16t-17 -16h-56v-215q0 -16 -16 -16q-17 0 -17 16v215zM423 686l-51 -84q-6 -11 -16 -11q-9 0 -16 12l-50 83v-165q0 -16 -16 -16q-17 0 -17 16v232q0 15 16 15q9 0 21 -18l62 -107l63 108q9 17 21 17q16 0 16 -15
v-232q0 -16 -17 -16q-16 0 -16 16v165z" />
    <glyph glyph-name="one.lnum" horiz-adv-x="385" 
d="M17 18q0 8 5.5 13t12.5 5h142v603l-43 -80q-6 -13 -18 -13q-7 0 -12.5 5t-5.5 12q0 4 7 18l69 133q9 17 23 17q16 0 16 -17v-678h141q7 0 12.5 -5.5t5.5 -12.5t-5.5 -12.5t-12.5 -5.5h-319q-7 0 -12.5 5t-5.5 13z" />
  </font>
</defs>
</svg>
